Long John Hunter - Border Town Legend (1996)


Long John Hunter - Border Town Legend (1996)
EAC | FLAC | Image (Cue&Log) ~ 386 Mb (incl 5%) | Mp3 (CBR320) ~ 170 Mb (incl 5%) | Scans included
Genre: Electric Blues, Texas Blues | Label: Alligator Records | # ALCD 4839 | Time: 00:50:51

For many years Long John Hunter played in clubs without much attention, but that time sweating it out in roadhouses has paid off. During that time, he developed a gutsy, forceful technique that was fully evident on his belated 1993 debut, Ride With Me. Although his second album, Border Town Legend, is a slicker, more accessible effort, Hunter hasn't lost any of his spicy, distinctive flavor. Working with a horn section, he still manages to make himself the most powerful element on the record -- both his guitar playing and his heated vocals ensure that. Furthermore, Hunter's songwriting is growing stronger. Out of the nine songs he has written or co-written for the album, he has contributed some first-rate tunes that might not stretch beyond generic conventions, but still are mighty fine.

Review by Stephen Thomas Erlewine, Allmusic.com







Tracklist:

01. T-Bone Intentions (03:08)
02. Ice Cold (04:21)
03. Ole Red (05:24)
04. Marfa Lights (04:52)
05. Nasty Ways (03:30)
06. Grits Ain't Groceries (02:53)
07. Arkansas (05:19)
08. Rooster & The Hen (05:42)
09. Lone Star Shootout (04:07)
10. Everybody Knows (03:22)
11. Road Hog (03:59)
12. John's Funk (04:08)


Exact Audio Copy V1.0 beta 4 from 7. December 2014

Отчёт EAC об извлечении, выполненном 23. марта 2015, 11:38

Long John Hunter / Border Town Legend

Дисковод: SONY CD-RW CRX230ED Adapter: 1 ID: 0

Режим чтения : Достоверность
Использование точного потока : Да
Отключение кэша аудио : Да
Использование указателей C2 : Нет

Коррекция смещения при чтении : 6
Способность читать области Lead-in и Lead-out : Нет
Заполнение пропущенных сэмплов тишиной : Да
Удаление блоков с тишиной в начале и конце : Нет
При вычислениях CRC использовались нулевые сэмплы : Да
Интерфейс : Встроенный Win32-интерфейс для Win NT/2000

Выходной формат : Внутренние WAV-операции
Формат сэмплов : 44.100 Гц; 16 бит; стерео


TOC извлечённого CD

Трек | Старт | Длительность | Начальный сектор | Конечный сектор
---------------------------------------------------------------------
1 | 0:00.00 | 3:08.17 | 0 | 14116
2 | 3:08.17 | 4:21.00 | 14117 | 33691
3 | 7:29.17 | 5:24.50 | 33692 | 58041
4 | 12:53.67 | 4:52.68 | 58042 | 80009
5 | 17:46.60 | 3:30.62 | 80010 | 95821
6 | 21:17.47 | 2:53.50 | 95822 | 108846
7 | 24:11.22 | 5:19.60 | 108847 | 132831
8 | 29:31.07 | 5:42.18 | 132832 | 158499
9 | 35:13.25 | 4:07.32 | 158500 | 177056
10 | 39:20.57 | 3:22.38 | 177057 | 192244
11 | 42:43.20 | 3:59.65 | 192245 | 210234
12 | 46:43.10 | 4:08.02 | 210235 | 228836


Характеристики диапазона извлечения и сообщения об ошибках

Выбранный диапазон

Имя файла F:MusicCDTorrentLong John Hunter - Border Town LegendLong John Hunter - Border Town Legend.wav

Пиковый уровень 100.0 %
Скорость извлечения 7.3 X
Качество диапазона 100.0 %
CRC теста 7DA55DF9
CRC копии 7DA55DF9
Копирование... OK

Ошибок не произошло


AccurateRip: сводка

Трек 1 точность не определена (достоверность 8) [9B26E349], AccurateRip вернул [ECF55CDE] (AR v2)
Трек 2 точность не определена (достоверность 8) [906E466A], AccurateRip вернул [1FFCD015] (AR v2)
Трек 3 точность не определена (достоверность 7) [CA4F030C], AccurateRip вернул [BD5CC8FD] (AR v2)
Трек 4 точность не определена (достоверность 8) [F02CB9E0], AccurateRip вернул [31171D95] (AR v2)
Трек 5 точность не определена (достоверность 7) [8178BADF], AccurateRip вернул [8F53A7B8] (AR v2)
Трек 6 точность не определена (достоверность 7) [F0FF033F], AccurateRip вернул [1169D57C] (AR v2)
Трек 7 точность не определена (достоверность 7) [C352FEAA], AccurateRip вернул [CB0FE400] (AR v2)
Трек 8 точность не определена (достоверность 7) [EE16627F], AccurateRip вернул [2F96C12E] (AR v2)
Трек 9 точность не определена (достоверность 7) [4CCE7654], AccurateRip вернул [EA4EBF17] (AR v2)
Трек 10 точность не определена (достоверность 7) [B4E2F72B], AccurateRip вернул [21AC1D63] (AR v2)
Трек 11 точность не определена (достоверность 7) [152952BE], AccurateRip вернул [E5C3CD33] (AR v2)
Трек 12 точность не определена (достоверность 8) [A001D83C], AccurateRip вернул [37F2A624] (AR v2)

Ни один трек не прошёл проверки на точность
В вашей базе может быть иной вариант штамповки диска

Конец отчёта

---- CUETools DB Plugin V2.1.4

[CTDB TOCID: ofWZDvOr4bdDD1PC5rMN8gpU4AI-] found
Submit result: ofWZDvOr4bdDD1PC5rMN8gpU4AI- has been confirmed
Track | CTDB Status
1 | (5/5) Accurately ripped
2 | (5/5) Accurately ripped
3 | (5/5) Accurately ripped
4 | (5/5) Accurately ripped
5 | (5/5) Accurately ripped
6 | (5/5) Accurately ripped
7 | (5/5) Accurately ripped
8 | (5/5) Accurately ripped
9 | (5/5) Accurately ripped
10 | (5/5) Accurately ripped
11 | (5/5) Accurately ripped
12 | (5/5) Accurately ripped


==== Контрольная сумма отчёта 684B5215978FC6E0F1FAE6C74814376344F817108F31929B6DDDDDE8EFB81210 ====

foobar2000 1.3.8 / Dynamic Range Meter 1.1.1
log date: 2015-11-07 17:17:27

--------------------------------------------------------------------------------
Analyzed: Long John Hunter / Border Town Legend
--------------------------------------------------------------------------------

DR Peak RMS Duration Track
--------------------------------------------------------------------------------
DR11 0.00 dB -12.33 dB 3:08 01-T-Bone Intentions
DR10 -0.32 dB -12.65 dB 4:21 02-Ice Cold
DR10 -0.86 dB -13.22 dB 5:25 03-Ole Red
DR10 -0.78 dB -13.51 dB 4:53 04-Marfa Lights
DR11 0.00 dB -12.05 dB 3:31 05-Nasty Ways
DR10 0.00 dB -12.30 dB 2:54 06-Grits Ain't Groceries
DR12 0.00 dB -14.33 dB 5:20 07-Arkansas
DR13 0.00 dB -14.69 dB 5:42 08-Rooster & The Hen
DR11 0.00 dB -12.32 dB 4:07 09-Lone Star Shootout
DR11 0.00 dB -13.27 dB 3:23 10-Everybody Knows
DR12 -0.21 dB -14.46 dB 4:00 11-Road Hog
DR11 -0.64 dB -16.34 dB 4:08 12-John's Funk
--------------------------------------------------------------------------------

Number of tracks: 12
Official DR value: DR11

Samplerate: 44100 Hz
Channels: 2
Bits per sample: 16
Bitrate: 887 kbps
Codec: FLAC
================================================================================



All thanks to original releaser - squirr



Password: designol