Вход в свой аккаунт

Или войдите через соц. сети

Third World - Serious Business (1987)


Third World - Serious Business (1987)
EAC Rip | FLAC (Tracks) +CUE, LOG | 407 MB | Covers Included
Reggae | Label: Mercury Records | Catalog Number: 836 952-2

“ [AllMusic Review by Rosalind Cummings-Yeates [-]]
Although it's filled with more pop than reggae, Serious Business represents a pivotal time for Third World. The talented group had spent the '70s and early '80s riding the precarious wave between roots reggae and pop-oriented, crossover reggae. Released in 1989, Serious Business announced the direction that Third World would take from then on. From the catchy, fluffy radio hit "Forbidden Love" to the gratuitous rap solo on "Theme From the Underdog," it's clear that the band chose the pop side and was making no apologies. "Same Old Song," a remake of the Four Tops classic, lends none of the innovation that reggae remakes usually add to standards, and the South African mbaqanga rhythms of "Take This Song" can't hide the weak attempt at creating a worldwide unity anthem, albeit with an overwhelming pop sensibility. "Reggae Ambassador," both the vocal and dub version, stands out as the album's most creative moment, showcasing Third World's easygoing melodies and fun-loving spirit.
”


Exact Audio Copy V1.0 beta 3 from 29. August 2011

EAC extraction logfile from 1. November 2015, 21:35

Third World / Serious Business

Used drive : GENERIC CDRCB05 Adapter: 4 ID: 0

Read mode : Secure
Utilize accurate stream : Yes
Defeat audio cache : Yes
Make use of C2 pointers : No

Read offset correction : 102
Overread into Lead-In and Lead-Out : No
Fill up missing offset samples with silence : Yes
Delete leading and trailing silent blocks : No
Null samples used in CRC calculations : Yes
Used interface : Native Win32 interface for Win NT & 2000
Gap handling : Appended to previous track

Used output format : User Defined Encoder
Selected bitrate : 1024 kBit/s
Quality : High
Add ID3 tag : No
Command line compressor : C:Program FilesFLACflac.exe
Additional command line options : -8 -V -T "ARTIST=%artist%" -T "TITLE=%title%" -T "ALBUM=%albumtitle%" -T "DATE=%year%" -T "TRACKNUMBER=%tracknr%" -T "GENRE=%genre%" -T "PERFORMER=%albuminterpret%" -T "COMPOSER=%composer%" %haslyrics%--tag-from-file=LYRICS="%lyricsfile%"%haslyrics% -T "ALBUMARTIST=%albumartist%" -T "DISCNUMBER=%cdnumber%" -T "TOTALDISCS=%totalcds%" -T "TOTALTRACKS=%numtracks%" -T "COMMENT=%comment%" %source% -o %dest%


TOC of the extracted CD

Track | Start | Length | Start sector | End sector
---------------------------------------------------------
1 | 0:00.32 | 4:27.58 | 32 | 20114
2 | 4:28.15 | 3:56.37 | 20115 | 37851
3 | 8:24.52 | 3:29.35 | 37852 | 53561
4 | 11:54.12 | 3:47.15 | 53562 | 70601
5 | 15:41.27 | 4:25.30 | 70602 | 90506
6 | 20:06.57 | 5:06.55 | 90507 | 113511
7 | 25:13.37 | 4:04.50 | 113512 | 131861
8 | 29:18.12 | 4:08.73 | 131862 | 150534
9 | 33:27.10 | 4:05.12 | 150535 | 168921
10 | 37:32.22 | 3:35.60 | 168922 | 185106
11 | 41:08.07 | 4:16.53 | 185107 | 204359
12 | 45:24.60 | 2:45.30 | 204360 | 216764
13 | 48:10.15 | 0:50.55 | 216765 | 220569


Track 1

Filename G:POSTSThird World ‎- Serious Business (1987)1 - Forbidden Love.wav

Pre-gap length 0:00:02.32

Peak level 99.1 %
Extraction speed 1.4 X
Track quality 100.0 %
Test CRC B68C21FD
Copy CRC B68C21FD
Cannot be verified as accurate (confidence 5) [3F28FCD5], AccurateRip returned [EAD01251] (AR v2)
Copy OK

Track 2

Filename G:POSTSThird World ‎- Serious Business (1987)2 - It's The Same Old Song.wav

Pre-gap length 0:00:01.00

Peak level 89.9 %
Extraction speed 1.6 X
Track quality 100.0 %
Test CRC B7C29636
Copy CRC B7C29636
Cannot be verified as accurate (confidence 6) [568935ED], AccurateRip returned [A5EE3313] (AR v2)
Copy OK

Track 3

Filename G:POSTSThird World ‎- Serious Business (1987)3 - Reggae Ambassador.wav

Pre-gap length 0:00:00.32

Peak level 75.6 %
Extraction speed 1.5 X
Track quality 99.9 %
Test CRC 0FD5BE2C
Copy CRC 0FD5BE2C
Cannot be verified as accurate (confidence 6) [979C9707], AccurateRip returned [4ABE9F72] (AR v2)
Copy OK

Track 4

Filename G:POSTSThird World ‎- Serious Business (1987)4 - D.J. Ambassador.wav

Pre-gap length 0:00:00.40

Peak level 95.2 %
Extraction speed 1.8 X
Track quality 100.0 %
Test CRC AD66393E
Copy CRC AD66393E
Cannot be verified as accurate (confidence 6) [0FC482D6], AccurateRip returned [1E7F558E] (AR v2)
Copy OK

Track 5

Filename G:POSTSThird World ‎- Serious Business (1987)5 - Keep Your Head To the Sky.wav

Pre-gap length 0:00:01.60

Peak level 100.0 %
Extraction speed 2.0 X
Track quality 100.0 %
Test CRC 8C4C8323
Copy CRC 8C4C8323
Cannot be verified as accurate (confidence 5) [C9354BA7], AccurateRip returned [DBC881DC] (AR v2)
Copy OK

Track 6

Filename G:POSTSThird World ‎- Serious Business (1987)6 - Take This Song.wav

Peak level 100.0 %
Extraction speed 1.9 X
Track quality 99.9 %
Test CRC 93884919
Copy CRC 93884919
Cannot be verified as accurate (confidence 5) [8D8E19F8], AccurateRip returned [5BAB3519] (AR v2)
Copy OK

Track 7

Filename G:POSTSThird World ‎- Serious Business (1987)7 - Love Will Always Be There.wav

Pre-gap length 0:00:00.70

Peak level 93.1 %
Extraction speed 2.0 X
Track quality 99.9 %
Test CRC 368CFDB0
Copy CRC 368CFDB0
Cannot be verified as accurate (confidence 5) [4BC27EC9], AccurateRip returned [4079925C] (AR v2)
Copy OK

Track 8

Filename G:POSTSThird World ‎- Serious Business (1987)8 - Serious Business.wav

Pre-gap length 0:00:01.22

Peak level 100.0 %
Extraction speed 2.1 X
Track quality 99.9 %
Test CRC 2569FA19
Copy CRC 2569FA19
Cannot be verified as accurate (confidence 6) [C4191709], AccurateRip returned [A3DD5234] (AR v2)
Copy OK

Track 9

Filename G:POSTSThird World ‎- Serious Business (1987)9 - Never Say Never.wav

Pre-gap length 0:00:00.53

Peak level 81.0 %
Extraction speed 2.4 X
Track quality 100.0 %
Test CRC 42011D79
Copy CRC 42011D79
Cannot be verified as accurate (confidence 6) [57D54ACD], AccurateRip returned [B0F772F7] (AR v2)
Copy OK

Track 10

Filename G:POSTSThird World ‎- Serious Business (1987)10 - We The People.wav

Pre-gap length 0:00:00.35

Peak level 93.0 %
Extraction speed 2.1 X
Track quality 99.9 %
Test CRC CA05ED8A
Copy CRC CA05ED8A
Cannot be verified as accurate (confidence 5) [F511F334], AccurateRip returned [344A80F3] (AR v2)
Copy OK

Track 11

Filename G:POSTSThird World ‎- Serious Business (1987)11 - Theme from the Underdog.wav

Pre-gap length 0:00:01.22

Peak level 82.0 %
Extraction speed 2.6 X
Track quality 100.0 %
Test CRC 34088304
Copy CRC 34088304
Cannot be verified as accurate (confidence 5) [03BCD86F], AccurateRip returned [89CC8E73] (AR v2)
Copy OK

Track 12

Filename G:POSTSThird World ‎- Serious Business (1987)12 - Theme from the Underdog (rap).wav

Peak level 76.2 %
Extraction speed 2.5 X
Track quality 100.0 %
Test CRC 517D89A6
Copy CRC 517D89A6
Cannot be verified as accurate (confidence 5) [085E852B], AccurateRip returned [E4437FBB] (AR v2)
Copy OK

Track 13

Filename G:POSTSThird World ‎- Serious Business (1987)13 - Take This Song (reprise).wav

Pre-gap length 0:00:01.53

Peak level 58.7 %
Extraction speed 1.7 X
Track quality 100.0 %
Test CRC CDAB75AE
Copy CRC CDAB75AE
Cannot be verified as accurate (confidence 5) [1A42EC93], AccurateRip returned [CA13470E] (AR v2)
Copy OK


No tracks could be verified as accurate
You may have a different pressing from the one(s) in the database

No errors occurred

End of status report

==== Log checksum C6010D67C12F1816EDB2DAC0F1F7AD8061AA8A7F2B2DD352E1D987FD22481FFB ====


Tracklist:
01. Forbidden Love
02. It's The Same Old Song
03. Reggae Ambassador
04. D.J. Ambassador
05. Keep Your Head To The Sky
06. Take This Song
07. Love Will Always Be There
08. Serious Buisness
09. Never Say Never
10. We The People
11. Theme From Underdog
12. Theme From Underdog (Rap Version)
13. Take This Song (Reprise)