Вход в свой аккаунт

Или войдите через соц. сети

Magnus Karlsson's Free Fall - Kingdom Of Rock (2015)


Magnus Karlsson's Free Fall - Kingdom Of Rock (2015)
EAC Rip | FLAC (Img) + Cue + Log ~ 422 Mb | MP3 CBR320 ~ 149 Mb
Scans Included (JPG, 300 dpi) | RAR 5% Recovery
Melodic Hard Rock/Heavy Metal | Frontiers Records/Irond Ltd. #IROND CD 15-1874

“ Magnus Karlsson is the mastermind behind the successful initial Allen/Lande trilogy, Starbreaker, Bob Catley, Kiske/Somerville and many more popular Euro metal releases as well as a member of German heavy metal icons Primal Fear. For the second album of his own project, Free Fall aptly titled Kingdom of Rock Magnus once again enlisted a dream team featuring some of the best singers in metal and hard rock!
~ Amazon
”

| |

***************


Track List:

01. Kingdom Of Rock (Jorn Lande, vocals) [05:26]
02. Out Of The Dark (Jakob Samuel, vocals) [04:24]
03. No Control (Joe Lynn Turner, vocals) [04:38]
04. When The Sky Falls (Tony Martin, vocals) [05:59]
05. Angel Of The Night (David Readman, vocals) [04:13]
06. I Am Coming For You (Magnus Karlsson, vocals) [05:30]
07. Another Life (Rick Altzi, vocals) [04:55]
08. Never Look Away (Tony Harnell, vocals) [05:07]
09. A Heart So Cold (Harry Hess, vocals) [04:41]
10. The Right Moment (Rebecca De La Motte, vocals) [04:49]
11. Walk This Road Alone (Magnus Karlsson, vocals) [05:17]

Exact Audio Copy V1.0 beta 3 from 29. August 2011

EAC extraction logfile from 7. November 2015, 0:28

Magnus Karlsson's Free Fall / Kingdom Of Rock

Used drive : MATSHITABD-CMB UJ242AS Adapter: 0 ID: 1

Read mode : Secure
Utilize accurate stream : Yes
Defeat audio cache : Yes
Make use of C2 pointers : No

Read offset correction : 103
Overread into Lead-In and Lead-Out : No
Fill up missing offset samples with silence : Yes
Delete leading and trailing silent blocks : No
Null samples used in CRC calculations : Yes
Used interface : Installed external ASPI interface

Used output format : User Defined Encoder
Selected bitrate : 1024 kBit/s
Quality : High
Add ID3 tag : Yes
Command line compressor : C:Program Files (x86)Exact Audio CopyFlacflac.exe
Additional command line options : -V -8 -T "Date=%year%" -T "Genre=%genre%" %source%


TOC of the extracted CD

Track | Start | Length | Start sector | End sector
---------------------------------------------------------
1 | 0:00.00 | 5:25.46 | 0 | 24420
2 | 5:25.46 | 4:23.30 | 24421 | 44175
3 | 9:49.01 | 4:37.32 | 44176 | 64982
4 | 14:26.33 | 5:58.60 | 64983 | 91892
5 | 20:25.18 | 4:12.67 | 91893 | 110859
6 | 24:38.10 | 5:29.37 | 110860 | 135571
7 | 30:07.47 | 4:54.67 | 135572 | 157688
8 | 35:02.39 | 5:06.40 | 157689 | 180678
9 | 40:09.04 | 4:40.29 | 180679 | 201707
10 | 44:49.33 | 4:48.70 | 201708 | 223377
11 | 49:38.28 | 5:16.20 | 223378 | 247097


Range status and errors

Selected range

Filename C:EACripMagnus Karlsson's Free Fall - Kingdom Of Rock.wav

Peak level 98.8 %
Extraction speed 4.3 X
Range quality 100.0 %
Test CRC 2D6B5F4F
Copy CRC 2D6B5F4F
Copy OK

No errors occurred


AccurateRip summary

Track 1 not present in database
Track 2 not present in database
Track 3 not present in database
Track 4 not present in database
Track 5 not present in database
Track 6 not present in database
Track 7 not present in database
Track 8 not present in database
Track 9 not present in database
Track 10 not present in database
Track 11 not present in database

None of the tracks are present in the AccurateRip database

End of status report

==== Log checksum 73501CA46E734A08F734D9091C58C786044D1EFA7457626FA55BB8A5467AF379 ====

foobar2000 1.2.6 / Dynamic Range Meter 1.1.1
log date: 2015-11-10 00:23:25

--------------------------------------------------------------------------------
Analyzed: Magnus Karlsson's Free Fall / Kingdom Of Rock
--------------------------------------------------------------------------------

DR Peak RMS Duration Track
--------------------------------------------------------------------------------
DR7 -0.10 dB -8.66 dB 5:26 01-01. Kingdom Of Rock (Jorn Lande, vocals)
DR6 -0.10 dB -7.60 dB 4:23 02-02. Out Of The Dark (Jakob Samuel, vocals)
DR7 -0.10 dB -8.40 dB 4:37 03-03. No Control (Joe Lynn Turner, vocals)
DR7 -0.10 dB -8.44 dB 5:59 04-04. When The Sky Falls (Tony Martin, vocals)
DR7 -0.10 dB -7.62 dB 4:13 05-05. Angel Of The Night (David Readman, vocals)
DR7 -0.10 dB -8.11 dB 5:29 06-06. I Am Coming For You (Magnus Karlsson, vocals)
DR7 -0.10 dB -8.39 dB 4:55 07-07. Another Life (Rick Altzi, vocals)
DR7 -0.10 dB -8.40 dB 5:07 08-08. Never Look Away (Tony Harnell, vocals)
DR7 -0.10 dB -7.99 dB 4:40 09-09. A Heart So Cold (Harry Hess, vocals)
DR7 -0.10 dB -9.30 dB 4:49 10-10. The Right Moment (Rebecca De La Motte, vocals)
DR6 -0.10 dB -7.98 dB 5:16 11-11. Walk This Road Alone (Magnus Karlsson, vocals)
--------------------------------------------------------------------------------

Number of tracks: 11
Official DR value: DR7

Samplerate: 44100 Hz
Channels: 2
Bits per sample: 16
Bitrate: 981 kbps
Codec: FLAC
================================================================================

[CUETools log; Date: 10.11.2015 0:18:02; Version: 2.1.5]
[CTDB TOCID: HvKn7bc0CkSbdJnm3pqU6P3EH3A-] disk not present in database.
[AccurateRip ID: 00169ed9-00c3f3f1-920cde0b] disk not present in database.

Track Peak [ CRC32 ] [W/O NULL] [ LOG ]
-- 98,8 [2D6B5F4F] [83387EEF] CRC32
01 98,8 [70A0D9F7] [6396281D]
02 98,8 [DE5C6F76] [4EBDBB3E]
03 98,8 [433DBE8F] [9522CDE8]
04 98,8 [2DE07C2D] [72C2FF10]
05 98,8 [473BAE6E] [C132B4CE]
06 98,8 [6BFAE452] [F8419909]
07 98,8 [CA330B21] [AD30EE21]
08 98,8 [13BE5CDE] [EF3DC8D5]
09 98,8 [716ADD0B] [F974343B]
10 98,8 [B7687709] [1685A746]
11 98,8 [54778E84] [E044E6CD]


All thanks go to rd



Download:
Uploadable: | |

Turbobit: | |