Anthony Gomes - Long Way Home (1997)


Anthony Gomes - Long Way Home (1997)
EAC Rip | FLAC (Img) + Cue + Log ~ 300 Mb | MP3 CBR320 ~ 120 Mb
Scans Included (JPG, 600 dpi) | RAR 5% Recovery
Blues, R&B | Up 2 Zero Entertainment #1113-2

Canadian-born guitarist, singer, and songwriter Anthony Gomes is a critically acclaimed chart-topping artist who plays a style of modern electric blues that incorporates elements of rock, soul, R&B, and country. Born in 1975 in Toronto, Canada, to a Portuguese father and a Canadian mother, he began playing guitar in his early teens and moved to Chicago, IL, in the late '90s with hopes of establishing himself as a musician. After honing his craft on the Windy City club circuit, he moved to Nashville, TN, where he found a home for himself amid the city's renowned music scene.

Gomes made his recording debut in 1998 on the Urban Electric label with Blues in Technicolor, followed by Sweet Stringin' Soul in 2000. In 2002 he switched to 33rd Street Records for Unity and proceeded to win the 2003 BluesWax Artist of the Year award. This accolade elevated Gomes to the top of the blues field, and consequently he was able to draw increasingly larger crowds to his live performances, which increased in frequency and scope. Though he didn't release another album until 2006, Gomes' endless touring kept him atop the blues field, as he continued to be nominated for BluesWax Artist of the Year awards several years in a row.

Gomes' fourth album, Music Is the Medicine (2006), released on the Adrenaline Music label, was his first to chart, peaking at number four on the Billboard Top Blues Albums chart. During his supporting tour of the album, the February 27, 2007, show at the Triple Door in Seattle, WA, was recorded and subsequently released in 2008 as the album Live. It features his band, the New Soul Cowboys, comprised of David Karns (bass, vocals), Peter Lang (drums), and Dylan St. John (keyboards, vocals). The first of his albums to document his on-stage performance ability, Live was his greatest commercial success to date, reaching number one on the Billboard Top Blues Albums chart.
~ Jason Birchmeier, All Music

| | |

***************


Track List:

01. Bring It [03:22]
02. Without You [04:05]
03. Hard Line To Ride [04:08]
04. Purple Whiskey Sack [03:37]
05. Long Way Home [03:03]
06. Monday Salvation [04:11]
07. Mississippi Hurricane [04:00]
08. Morning Star [03:53]
09. Soul Power [03:19]
10. Titl-A-Whirl [03:23]

Exact Audio Copy V1.0 beta 3 from 29. August 2011

Отчёт EAC об извлечении, выполненном 5. ноября 2015, 19:45

Anthony Gomes / Long Way Home

Дисковод: PLEXTOR DVDR PX-880SA Adapter: 1 ID: 0

Режим чтения : Достоверность
Использование точного потока : Да
Отключение кэша аудио : Да
Использование указателей C2 : Нет

Коррекция смещения при чтении : 6
Способность читать области Lead-in и Lead-out : Нет
Заполнение пропущенных сэмплов тишиной : Да
Удаление блоков с тишиной в начале и конце : Нет
При вычислениях CRC использовались нулевые сэмплы : Да
Интерфейс : Установленный внешний ASPI-интерфейс

Выходной формат : Пользовательский кодировщик
Выбранный битрейт : 1024 kBit/s
Качество : Высокий
Добавление ID3-тега : Нет
Утилита сжатия : C:Program FilesExact Audio CopyFLACFLAC.EXE
Дополнительные параметры : -8 -V -T "ARTIST=%artist%" -T "ALBUM=%albumtitle%" -T "DATE=%year%" -T "GENRE=%genre%" -T "COMMENT=ripped by izia1956" %source%


TOC извлечённого CD

Трек | Старт | Длительность | Начальный сектор | Конечный сектор
---------------------------------------------------------------------
1 | 0:01.00 | 3:21.41 | 75 | 15190
2 | 3:22.41 | 4:04.05 | 15191 | 33495
3 | 7:26.46 | 4:07.74 | 33496 | 52094
4 | 11:34.45 | 3:36.20 | 52095 | 68314
5 | 15:10.65 | 3:02.04 | 68315 | 81968
6 | 18:12.69 | 4:10.59 | 81969 | 100777
7 | 22:23.53 | 3:59.13 | 100778 | 118715
8 | 26:22.66 | 3:52.63 | 118716 | 136178
9 | 30:15.54 | 3:18.33 | 136179 | 151061
10 | 33:34.12 | 3:22.14 | 151062 | 166225


Характеристики диапазона извлечения и сообщения об ошибках

Выбранный диапазон

Имя файла D:BitCometAnthony Gomes1997 - Long Way HomeAnthony Gomes - Long Way Home.wav

Пиковый уровень 96.6 %
Скорость извлечения 2.8 X
Качество диапазона 100.0 %
CRC теста 41BF4DA2
CRC копии 41BF4DA2
Копирование... OK

Ошибок не произошло


AccurateRip: сводка

Трек 1 точность не определена (достоверность 2) [0D927297], AccurateRip вернул [5ADE92EB] (AR v2)
Трек 2 точность не определена (достоверность 2) [F958438E], AccurateRip вернул [425E983E] (AR v2)
Трек 3 точность не определена (достоверность 2) [5A1824C8], AccurateRip вернул [14EC87DF] (AR v2)
Трек 4 точность не определена (достоверность 2) [C221A9BC], AccurateRip вернул [A86133BF] (AR v2)
Трек 5 точность не определена (достоверность 2) [FC5A5915], AccurateRip вернул [E43C8D6C] (AR v2)
Трек 6 точность не определена (достоверность 2) [E53FC31A], AccurateRip вернул [63AE919E] (AR v2)
Трек 7 точность не определена (достоверность 2) [A6DD570E], AccurateRip вернул [659A14AD] (AR v2)
Трек 8 точность не определена (достоверность 2) [79DBF2B3], AccurateRip вернул [9245EEAA] (AR v2)
Трек 9 точность не определена (достоверность 2) [71FCA2F8], AccurateRip вернул [494F865B] (AR v2)
Трек 10 точность не определена (достоверность 2) [6D3FFCA0], AccurateRip вернул [374DA65B] (AR v2)

Ни один трек не прошёл проверки на точность
В вашей базе может быть иной вариант штамповки диска

Конец отчёта

==== Контрольная сумма отчёта DD623CF56CCEE7EE743053C83EC304E594510158E5607D8DD5123EFEA01929A6 ====

foobar2000 1.2.6 / Dynamic Range Meter 1.1.1
log date: 2015-11-10 15:21:27

--------------------------------------------------------------------------------
Analyzed: Anthony Gomes / Long Way Home
--------------------------------------------------------------------------------

DR Peak RMS Duration Track
--------------------------------------------------------------------------------
DR6 -0.30 dB -7.92 dB 3:22 01-Bring It
DR6 -0.30 dB -8.13 dB 4:04 02-Without You
DR7 -0.30 dB -8.64 dB 4:08 03-Hard Line To Ride
DR8 -0.30 dB -9.94 dB 3:36 04-Purple Whiskey Sack
DR10 -0.30 dB -12.23 dB 3:02 05-Long Way Home
DR6 -0.30 dB -8.15 dB 4:11 06-Monday Salvation
DR7 -0.30 dB -8.79 dB 3:59 07-Mississippi Hurricane
DR6 -0.30 dB -8.80 dB 3:53 08-Morning Star
DR6 -0.30 dB -7.97 dB 3:18 09-Soul Power
DR6 -0.30 dB -7.58 dB 3:22 10-Titl-A-Whirl
--------------------------------------------------------------------------------

Number of tracks: 10
Official DR value: DR7

Samplerate: 44100 Hz
Channels: 2
Bits per sample: 16
Bitrate: 967 kbps
Codec: FLAC
================================================================================

[CUETools log; Date: 10.11.2015 15:21:27; Version: 2.1.5]
Pregap length 00:01:00.
[CTDB TOCID: 7tpmP5yfWskqKzE1fsD0qJcqKf8-] found.
Track | CTDB Status
1 | (1/1) Accurately ripped
2 | (1/1) Accurately ripped
3 | (1/1) Accurately ripped
4 | (1/1) Accurately ripped
5 | (1/1) Accurately ripped
6 | (1/1) Accurately ripped
7 | (1/1) Accurately ripped
8 | (1/1) Accurately ripped
9 | (1/1) Accurately ripped
10 | (1/1) Accurately ripped
[AccurateRip ID: 000e19c6-0070cd5d-8108a70a] found.
Track [ CRC | V2 ] Status
01 [9277757f|0d927297] (0+0/2) No match
02 [dea82cb8|f958438e] (0+0/2) No match
03 [6e47aaec|5a1824c8] (0+0/2) No match
04 [fda4727c|c221a9bc] (0+0/2) No match
05 [2beec597|fc5a5915] (0+0/2) No match
06 [01cc9ddd|e53fc31a] (0+0/2) No match
07 [1258160e|a6dd570e] (0+0/2) No match
08 [c4025913|79dbf2b3] (0+0/2) No match
09 [45245b7a|71fca2f8] (0+0/2) No match
10 [81160aae|6d3ffca0] (0+0/2) No match
Offsetted by 90:
01 [5ade92eb] (2/2) Accurately ripped
02 [425e983e] (2/2) Accurately ripped
03 [14ec87df] (2/2) Accurately ripped
04 [a86133bf] (2/2) Accurately ripped
05 [e43c8d6c] (2/2) Accurately ripped
06 [63ae919e] (2/2) Accurately ripped
07 [659a14ad] (2/2) Accurately ripped
08 [9245eeaa] (2/2) Accurately ripped
09 [494f865b] (2/2) Accurately ripped
10 [374da65b] (2/2) Accurately ripped

Track Peak [ CRC32 ] [W/O NULL] [ LOG ]
-- 96,6 [41BF4DA2] [B4EF3D97] CRC32
01 96,6 [D12353CA] [D0898D54]
02 96,6 [3AB27695] [616BCB3F]
03 96,6 [82782B22] [DD3E0339]
04 96,6 [6B0BB704] [E05E7CD9]
05 96,6 [8054E126] [CC94AA0E]
06 96,6 [91E1660E] [85C80621]
07 96,6 [8A240A8F] [165422C9]
08 96,6 [1ED9E6A0] [C8D00569]
09 96,6 [75418DB8] [2450B4CA]
10 96,6 [5A19B700] [5AA991AC]


See also:







All thanks go to izia1956



Download:
Uploadable: | |

Turbobit: | |