Вход в свой аккаунт

Или войдите через соц. сети

Prague Philharmonic Orchestra - Nino Rota: Franco Zeffirelli's Romeo & Juliet (2002) [Re-Up]


Prague Philharmonic Orchestra - Franco Zeffirelli's Romeo & Juliet - Music Composed by Nino Rota (2002)
EAC | FLAC | Tracks (Cue&Log) ~ 329 Mb (incl 5%) | Mp3 (CBR320) ~ 177 Mb (incl 5%) | Scans included
Genre: Soundtrack, Score | Label: Silva Screen | # FILMCD 358 | Time: 00:55:18

“ Franco Zeffirelli's Romeo & Juliet Soundtrack album by Prague Philharmonic Orchestra was released Jun 25, 2002 on the Silva Screen label. This complete score to the 1968 version of ROMEO & JULIET was re-recorded by The City Of Prague Philharmonic Orchestra And Chorus. Franco Zeffirelli's Romeo & Juliet Soundtrack CD music contains a single disc with 21 songs. ”


“ Producer James Fitzpatrick and conductor Nic Raine have undertaken a major job of restoration in preparing their new recording of Nino Rota's score for the 1968 Franco Zeffirelli film adaptation of Romeo & Juliet. Apparently, Rota's original manuscript is long lost, and they were forced to reconstruct the score by ear, listening to the soundtrack of the film. The result is a much more complete rendering of the memorable music than was heard on the million-selling Capitol Records soundtrack album. Of course, the chief attraction remains the "Love Theme" (aka "A Time for Us"), which is repeated several times, but one is also impressed by the elements of Renaissance period music that are included and by the overall beauty of the work. The Prague Philharmonic Orchestra is actually somewhat larger than the group Rota used to perform the film's music, but the score's delicacy is not lost, and this remains one of the more poignant and moving collections of music ever written for a Shakespeare production, as well as a gem in Rota's repertoire.

Review by William Ruhlmann, Allmusic.com
”






Tracklist:

01. Prologue and fanfare for the Prince (01:50)
02. Romeo (03:46)
03. Juliet (02:08)
04. The feast at the House of Capulet (02:00)
05. Did my heart love 'til now? (03:03)
06. The Moresca (02:40) - Saltarello
07. What is a youth? (02:45) - Lyrics by Eugene Walter. Vocal by Luke Bateman
08. Their first meeting (02:47)
09. What light through yonder window breaks? (02:48) - (The balcony scene, part 1)
10. Parting is such sweet sorrow (02:47) - (The balcony scene, part 2)
11. But this I pray... Consent to marry Us today (03:09)
12. Romeo and Juliet are wed (01:45) - Vocal by Anna Polakova
13. The death of Mercutio and Tybald (01:06)
14. Night's candles are burnt out (04:39)
15. Adieu (01:52) - (Farewell love scene)
16. The likeness of Death (04:29)
17. The ride from Mantua (02:46)
18. Death... Hath sucked the honey of thy breath (02:01) - (The death of Romeo)
19. Love theme from Romeo & Juliet (02:43) - (In Capulet's tomb)
20. O happy dagger (02:02) - (The death of Juliet)
21. Epilogue (02:12)


Exact Audio Copy V1.0 beta 3 from 29. August 2011

EAC extraction logfile from 10. October 2012, 18:12

Nino Rota / Romeo & Juliet

Used drive : PLEXTOR DVDR PX-L890SA Adapter: 1 ID: 0

Read mode : Secure
Utilize accurate stream : Yes
Defeat audio cache : Yes
Make use of C2 pointers : No

Read offset correction : 6
Overread into Lead-In and Lead-Out : No
Fill up missing offset samples with silence : Yes
Delete leading and trailing silent blocks : No
Null samples used in CRC calculations : Yes
Used interface : Installed external ASPI interface
Gap handling : Appended to previous track

Used output format : User Defined Encoder
Selected bitrate : 1024 kBit/s
Quality : High
Add ID3 tag : No
Command line compressor : C:Program FilesExact Audio CopyFlacflac.exe
Additional command line options : -V -8 -T "Genre=%genre%" -T "Artist=%artist%" -T "Title=%title%" -T "Album=%albumtitle%" -T "Date=%year%" -T "Tracknumber=%tracknr%" -T "Comment=%comment%" %source%


TOC of the extracted CD

Track | Start | Length | Start sector | End sector
---------------------------------------------------------
1 | 0:00.00 | 1:48.14 | 0 | 8113
2 | 1:48.14 | 3:46.20 | 8114 | 25083
3 | 5:34.34 | 2:08.06 | 25084 | 34689
4 | 7:42.40 | 2:00.00 | 34690 | 43689
5 | 9:42.40 | 3:03.16 | 43690 | 57430
6 | 12:45.56 | 2:39.38 | 57431 | 69393
7 | 15:25.19 | 2:45.15 | 69394 | 81783
8 | 18:10.34 | 2:47.03 | 81784 | 94311
9 | 20:57.37 | 2:47.42 | 94312 | 106878
10 | 23:45.04 | 2:47.59 | 106879 | 119462
11 | 26:32.63 | 3:08.17 | 119463 | 133579
12 | 29:41.05 | 1:45.40 | 133580 | 141494
13 | 31:26.45 | 1:05.15 | 141495 | 146384
14 | 32:31.60 | 4:39.21 | 146385 | 167330
15 | 37:11.06 | 1:51.72 | 167331 | 175727
16 | 39:03.03 | 4:29.64 | 175728 | 195966
17 | 43:32.67 | 2:44.65 | 195967 | 208331
18 | 46:17.57 | 2:01.35 | 208332 | 217441
19 | 48:19.17 | 2:42.25 | 217442 | 229616
20 | 51:01.42 | 2:01.24 | 229617 | 238715
21 | 53:02.66 | 2:13.35 | 238716 | 248725


Track 1

Filename F:torrentRomeo and Juliet_Nino Rotascore1 Prologue And Fanfare For The Prince.wav

Pre-gap length 0:00:02.00

Peak level 93.1 %
Extraction speed 3.1 X
Track quality 99.9 %
Test CRC 736BD102
Copy CRC 736BD102
Accurately ripped (confidence 2) [8CA00916] (AR v1)
Copy OK

Track 2

Filename F:torrentRomeo and Juliet_Nino Rotascore2 Romeo.wav

Peak level 91.1 %
Extraction speed 4.9 X
Track quality 100.0 %
Test CRC B5E10941
Copy CRC B5E10941
Accurately ripped (confidence 2) [5F5F2AF8] (AR v1)
Copy OK

Track 3

Filename F:torrentRomeo and Juliet_Nino Rotascore3 Juliet.wav

Peak level 95.4 %
Extraction speed 4.7 X
Track quality 100.0 %
Test CRC 1515580D
Copy CRC 1515580D
Accurately ripped (confidence 2) [55E2F88E] (AR v1)
Copy OK

Track 4

Filename F:torrentRomeo and Juliet_Nino Rotascore4 The Feast At The House Of Capulet.wav

Peak level 96.4 %
Extraction speed 4.9 X
Track quality 100.0 %
Test CRC E6CE9B59
Copy CRC E6CE9B59
Accurately ripped (confidence 2) [0F302CF8] (AR v1)
Copy OK

Track 5

Filename F:torrentRomeo and Juliet_Nino Rotascore5 Did My Heart Love 'Til Now.wav

Peak level 61.6 %
Extraction speed 5.7 X
Track quality 100.0 %
Test CRC 2386D7AE
Copy CRC 2386D7AE
Accurately ripped (confidence 2) [74422559] (AR v1)
Copy OK

Track 6

Filename F:torrentRomeo and Juliet_Nino Rotascore6 The Moresca.wav

Peak level 97.6 %
Extraction speed 5.8 X
Track quality 100.0 %
Test CRC 88529996
Copy CRC 88529996
Accurately ripped (confidence 2) [FFC3173A] (AR v1)
Copy OK

Track 7

Filename F:torrentRomeo and Juliet_Nino Rotascore7 What Is A Youth.wav

Peak level 96.6 %
Extraction speed 6.0 X
Track quality 100.0 %
Test CRC 53E6EBB2
Copy CRC 53E6EBB2
Accurately ripped (confidence 2) [016775F3] (AR v1)
Copy OK

Track 8

Filename F:torrentRomeo and Juliet_Nino Rotascore8 Their First Meeting.wav

Peak level 93.5 %
Extraction speed 6.3 X
Track quality 100.0 %
Test CRC 73F92CD9
Copy CRC 73F92CD9
Accurately ripped (confidence 2) [FA7AF021] (AR v1)
Copy OK

Track 9

Filename F:torrentRomeo and Juliet_Nino Rotascore9 What Light Through Yonder Window Breaks.wav

Peak level 76.3 %
Extraction speed 6.5 X
Track quality 100.0 %
Test CRC 22364D96
Copy CRC 22364D96
Accurately ripped (confidence 2) [5D23FB95] (AR v1)
Copy OK

Track 10

Filename F:torrentRomeo and Juliet_Nino Rotascore10 Parting Is Such Sweet Sorrow.wav

Peak level 96.3 %
Extraction speed 6.8 X
Track quality 100.0 %
Test CRC A47C73AA
Copy CRC A47C73AA
Accurately ripped (confidence 2) [813E5029] (AR v1)
Copy OK

Track 11

Filename F:torrentRomeo and Juliet_Nino Rotascore11 But This I Pray....Consent To Marry Us Today.wav

Peak level 94.6 %
Extraction speed 6.1 X
Track quality 99.9 %
Test CRC 7E67DF3A
Copy CRC 7E67DF3A
Accurately ripped (confidence 2) [C75DFC8A] (AR v1)
Copy OK

Track 12

Filename F:torrentRomeo and Juliet_Nino Rotascore12 Romeo And Juliet Are Wed.wav

Peak level 69.2 %
Extraction speed 6.5 X
Track quality 100.0 %
Test CRC 594D596F
Copy CRC 594D596F
Accurately ripped (confidence 2) [2D330F06] (AR v1)
Copy OK

Track 13

Filename F:torrentRomeo and Juliet_Nino Rotascore13 The Death Of Mercutio And Tybalt.wav

Peak level 97.0 %
Extraction speed 5.7 X
Track quality 100.0 %
Test CRC 453D7F19
Copy CRC 453D7F19
Accurately ripped (confidence 2) [994C841E] (AR v1)
Copy OK

Track 14

Filename F:torrentRomeo and Juliet_Nino Rotascore14 Night's Cabdles Are Burnt Out.wav

Peak level 91.2 %
Extraction speed 8.1 X
Track quality 100.0 %
Test CRC 4B9F953F
Copy CRC 4B9F953F
Accurately ripped (confidence 2) [6FB8B7D7] (AR v1)
Copy OK

Track 15

Filename F:torrentRomeo and Juliet_Nino Rotascore15 Adieu (Farewell Love Scene).wav

Peak level 95.3 %
Extraction speed 7.2 X
Track quality 100.0 %
Test CRC F9950200
Copy CRC F9950200
Accurately ripped (confidence 2) [8816A784] (AR v1)
Copy OK

Track 16

Filename F:torrentRomeo and Juliet_Nino Rotascore16 The Likeness Of Death.wav

Peak level 96.4 %
Extraction speed 8.6 X
Track quality 100.0 %
Test CRC 1F3A3A9B
Copy CRC 1F3A3A9B
Accurately ripped (confidence 2) [C5813D5D] (AR v1)
Copy OK

Track 17

Filename F:torrentRomeo and Juliet_Nino Rotascore17 The Ride From Mantua.wav

Peak level 96.8 %
Extraction speed 8.2 X
Track quality 100.0 %
Test CRC A0169EC6
Copy CRC A0169EC6
Accurately ripped (confidence 2) [01D1229C] (AR v1)
Copy OK

Track 18

Filename F:torrentRomeo and Juliet_Nino Rotascore18 Death...Hath Sucked The Honey Of Thy Breath (The Death Of Romeo).wav

Peak level 77.5 %
Extraction speed 6.3 X
Track quality 99.9 %
Test CRC 4539AF07
Copy CRC 4539AF07
Accurately ripped (confidence 2) [59A363E7] (AR v1)
Copy OK

Track 19

Filename F:torrentRomeo and Juliet_Nino Rotascore19 Love Theme From Romeo & Juliet (In Capulet's Tomb).wav

Peak level 97.4 %
Extraction speed 7.2 X
Track quality 99.9 %
Test CRC B1B9A9F1
Copy CRC B1B9A9F1
Accurately ripped (confidence 2) [EE5B44BD] (AR v1)
Copy OK

Track 20

Filename F:torrentRomeo and Juliet_Nino Rotascore20 O Happy Dagger (The Death Of Juliet).wav

Peak level 97.3 %
Extraction speed 7.9 X
Track quality 100.0 %
Test CRC AE09103E
Copy CRC AE09103E
Accurately ripped (confidence 2) [A7CD199E] (AR v1)
Copy OK

Track 21

Filename F:torrentRomeo and Juliet_Nino Rotascore21 Epilogue.wav

Peak level 97.9 %
Extraction speed 6.8 X
Track quality 99.9 %
Test CRC 5CCD3760
Copy CRC 5CCD3760
Accurately ripped (confidence 2) [2404A244] (AR v1)
Copy OK


All tracks accurately ripped

No errors occurred

End of status report

==== Log checksum 73AE7827135FC057BF8DF6E61DA8A732671F9C2245380D7D9183378A7DF6C464 ====

foobar2000 1.1.16 / Dynamic Range Meter 1.1.1
log date: 2012-12-14 23:38:04

--------------------------------------------------------------------------------
Analyzed: Nino Rota / Romeo & Juliet
--------------------------------------------------------------------------------

DR Peak RMS Duration Track
--------------------------------------------------------------------------------
DR12 -0.62 dB -16.65 dB 1:48 01-Prologue And Fanfare For The Prince
DR11 -0.80 dB -16.58 dB 3:46 02-Romeo
DR12 -0.40 dB -18.66 dB 2:08 03-Juliet
DR11 -0.32 dB -14.52 dB 2:00 04-The Feast At The House Of Capulet
DR11 -4.20 dB -19.96 dB 3:03 05-Did My Heart Love 'Til Now
DR10 -0.20 dB -13.33 dB 2:40 06-The Moresca
DR11 -0.30 dB -15.44 dB 2:45 07-What Is A Youth
DR11 -0.58 dB -16.96 dB 2:47 08-Their First Meeting
DR11 -2.35 dB -17.29 dB 2:48 09-What Light Through Yonder Window Breaks
DR12 -0.32 dB -17.24 dB 2:48 10-Parting Is Such Sweet Sorrow
DR10 -0.48 dB -15.53 dB 3:08 11-But This I Pray....Consent To Marry Us Today
DR10 -3.19 dB -17.87 dB 1:46 12-Romeo And Juliet Are Wed
DR9 -0.26 dB -12.91 dB 1:05 13-The Death Of Mercutio And Tybalt
DR12 -0.80 dB -17.56 dB 4:39 14-Night's Cabdles Are Burnt Out
DR10 -0.41 dB -15.61 dB 1:52 15-Adieu (Farewell Love Scene)
DR11 -0.32 dB -16.44 dB 4:30 16-The Likeness Of Death
DR10 -0.27 dB -15.55 dB 2:45 17-The Ride From Mantua
DR12 -2.21 dB -19.51 dB 2:01 18-Death...Hath Sucked The Honey Of Thy Breath (The Death Of Romeo)
DR8 -0.22 dB -12.70 dB 2:42 19-Love Theme From Romeo & Juliet (In Capulet's Tomb)
DR9 -0.24 dB -15.04 dB 2:01 20-O Happy Dagger (The Death Of Juliet)
DR9 -0.18 dB -12.42 dB 2:13 21-Epilogue
--------------------------------------------------------------------------------

Number of tracks: 21
Official DR value: DR11

Samplerate: 44100 Hz
Channels: 2
Bits per sample: 16
Bitrate: 735 kbps
Codec: FLAC
================================================================================


All thanks to original releaser - Sarant