Caligula’s Horse - Bloom (2015)


Caligula’s Horse - Bloom (2015)
EAC Rip | FLAC (Img) + Cue + Log ~ 323 Mb | MP3 CBR320 ~ 108 Mb
Scans (JPG, 600 dpi) ~ 43 Mb | RAR 5% Recovery
Progressive Alternative Rock, Progressive Metal | InsideOut Music #0507358

Named for the prized possession of Rome’s infamous despot, Caligula’s Horse is a progressive alternative rock band from Brisbane, Australia. Channelling the raw honesty of rock and the skill of progressive metal into a seamless voice at once energetic, grand and forthright, Caligula’s Horse offers devotees of all strains of powerful and progressive music something unique.

Formed by Sam Vallen and Jim Grey in early 2011, Caligula’s Horse released their debut album “Moments from Ephemeral City” in April of the same year. “Moments” is a colourful and dynamic foray into modern progressive music, at once vital, eclectic, and memorable. It was followed in 2013 by “The Tide, the Thief & River’s End”, a dark, powerful narrative concept album about isolation, exodus, and the human spirit overcoming insurmountable odds. It received international acclaim in the progressive music sphere, lauded by rock and metal fans alike. The release of “River’s End” saw the group undertake an intense touring regime, including dates with the likes of Opeth, Tesseract, Mastodon, The Dillinger Escape Plan, Protest The Hero, The Ocean, Firewind, Twelve Foot Ninja, Ne Obliviscaris, and hundreds more. But for Caligula’s Horse this is only the beginning. After joining the roster of The Agency Group in North America, AMF Publishing in the UK, and signing with the prestigious German record label Inside Out, the band’s sights are firmly set on the rest of the world.

2015 Caligula’s Horse released their third record “Bloom”, their most vivid, and emotional work to date. “Bloom” is the perfect mission statement for an act blurring the line between power and reflection; a musical assertion with depth enough for the most dedicated of prog fans, and with fire enough to bring audiences in venues across the world to fury and their voices to unison.
~ caligulashorse.com


| | |

***************


Track List:

01. Bloom [03:15]
02. Marigold [06:20]
03. Firelight [04:39]
04. Dragonfly [09:24]
05. Rust [05:33]
06. Turntail [05:03]
07. Daughter Of The Mountain [07:56]
08. Undergrowth [02:51]

Exact Audio Copy V1.1 from 23. June 2015

EAC extraction logfile from 26. October 2015, 14:58

Caligula's Horse / Bloom

Used drive : ASUS DRW-24B3ST Adapter: 1 ID: 0

Read mode : Secure
Utilize accurate stream : Yes
Defeat audio cache : Yes
Make use of C2 pointers : No

Read offset correction : 6
Overread into Lead-In and Lead-Out : No
Fill up missing offset samples with silence : Yes
Delete leading and trailing silent blocks : No
Null samples used in CRC calculations : Yes
Used interface : Native Win32 interface for Win NT & 2000

Used output format : User Defined Encoder
Selected bitrate : 768 kBit/s
Quality : High
Add ID3 tag : No
Command line compressor : C:Program Files (x86)Exact Audio CopyFLACFLAC.EXE
Additional command line options : -6 -V -T "ARTIST=%artist%" -T "TITLE=%title%" -T "ALBUM=%albumtitle%" -T "DATE=%year%" -T "TRACKNUMBER=%tracknr%" -T "GENRE=%genre%" -T "COMMENT=%comment%" -T "BAND=%albuminterpret%" -T "ALBUMARTIST=%albuminterpret%" -T "COMPOSER=%composer%" %haslyrics%--tag-from-file=LYRICS="%lyricsfile%"%haslyrics% -T "DISCNUMBER=%cdnumber%" -T "TOTALDISCS=%totalcds%" -T "TOTALTRACKS=%numtracks%" %hascover%--picture="%coverfile%"%hascover% %source% -o %dest%


TOC of the extracted CD

Track | Start | Length | Start sector | End sector
---------------------------------------------------------
1 | 0:00.00 | 3:14.67 | 0 | 14616
2 | 3:14.67 | 6:19.56 | 14617 | 43097
3 | 9:34.48 | 4:38.68 | 43098 | 64015
4 | 14:13.41 | 9:23.74 | 64016 | 106314
5 | 23:37.40 | 5:32.27 | 106315 | 131241
6 | 29:09.67 | 5:02.61 | 131242 | 153952
7 | 34:12.53 | 7:55.67 | 153953 | 189644
8 | 42:08.45 | 2:50.30 | 189645 | 202424


Range status and errors

Selected range

Filename D:Caligula's Horse - Bloom.wav

Peak level 99.3 %
Extraction speed 5.6 X
Range quality 100.0 %
Test CRC 1FB734B7
Copy CRC 1FB734B7
Copy OK

No errors occurred


AccurateRip summary

Track 1 not present in database
Track 2 not present in database
Track 3 not present in database
Track 4 not present in database
Track 5 not present in database
Track 6 not present in database
Track 7 not present in database
Track 8 not present in database

None of the tracks are present in the AccurateRip database

End of status report

---- CUETools DB Plugin V2.1.6

[CTDB TOCID: eumWwxymgYCY7uzQxkFSiczE5_o-] found
Submit result: eumWwxymgYCY7uzQxkFSiczE5_o- has been confirmed
Track | CTDB Status
1 | (1/1) Accurately ripped
2 | (1/1) Accurately ripped
3 | (1/1) Accurately ripped
4 | (1/1) Accurately ripped
5 | (1/1) Accurately ripped
6 | (1/1) Accurately ripped
7 | (1/1) Accurately ripped
8 | (1/1) Accurately ripped


==== Log checksum 3CF9D7F93DC5488F5A59ECF4A15DBED77EBB673CC433881E399A9645E4B9A033 ====

foobar2000 1.2.6 / Dynamic Range Meter 1.1.1
log date: 2015-11-18 21:26:48

--------------------------------------------------------------------------------
Analyzed: Caligula's Horse / Bloom
--------------------------------------------------------------------------------

DR Peak RMS Duration Track
--------------------------------------------------------------------------------
DR5 -0.05 dB -9.43 dB 3:15 01-Bloom
DR6 -0.05 dB -7.62 dB 6:20 02-Marigold
DR6 -0.05 dB -9.26 dB 4:39 03-Firelight
DR6 -0.05 dB -8.81 dB 9:24 04-Dragonfly
DR6 -0.05 dB -7.85 dB 5:32 05-Rust
DR6 -0.05 dB -8.27 dB 5:03 06-Turntail
DR6 -0.05 dB -8.06 dB 7:56 07-Daughter Of The Mountain
DR9 -2.44 dB -15.47 dB 2:50 08-Undergrowth
--------------------------------------------------------------------------------

Number of tracks: 8
Official DR value: DR6

Samplerate: 44100 Hz
Channels: 2
Bits per sample: 16
Bitrate: 954 kbps
Codec: FLAC
================================================================================

[CUETools log; Date: 18.11.2015 21:26:01; Version: 2.1.5]
[CTDB TOCID: eumWwxymgYCY7uzQxkFSiczE5_o-] found.
Track | CTDB Status
1 | (13/13) Accurately ripped
2 | (13/13) Accurately ripped
3 | (13/13) Accurately ripped
4 | (13/13) Accurately ripped
5 | (13/13) Accurately ripped
6 | (13/13) Accurately ripped
7 | (13/13) Accurately ripped
8 | (13/13) Accurately ripped
[AccurateRip ID: 000dd05f-005dd884-680a8b08] disk not present in database.

Track Peak [ CRC32 ] [W/O NULL] [ LOG ]
-- 99,3 [1FB734B7] [EFE3CB82] CRC32
01 99,3 [ED701805] [D64F3523]
02 99,3 [4C567E8F] [B36E68F9]
03 99,3 [3C8A36D7] [42B5A182]
04 99,3 [466954E4] [EEA06AE4]
05 99,3 [4D97D7FC] [8ACC479C]
06 99,3 [2DEF57C4] [40C4B5C8]
07 99,3 [6CE2FE9B] [0C8A0BED]
08 75,5 [7F4BFEB7] [44099271]


All thanks go to the original ripper(s) ...



Download: