Phillip Walker - Going Back Home (2007)


Phillip Walker - Going Back Home (2007)
EAC | FLAC | Image (Cue&Log) ~ 328 Mb (incl 5%) | Mp3 (CBR320) ~ 116 Mb (incl 5%) | Scans included
Genre: Blues | Label: Delta Groove Productions | # DGPCD 115 | Time: 00:48:25

Legendary Gulf Coast guitarist Philip Walker got his first big break back in the early '50s as a member of Zydeco king Clifton Chenier's band. in 1959 he made the move to Los Angeles where he remained since accumalated a sizeable catalog including recordings for Alligator, Black Top, JSP and Hightone Records. on his Delta Groove debut Phillip explores the rich history of Lousiana, Texas and the West coast covering classic material by Lowell FUlson, Ray Charles, Lightnin Hopkns, Lonesome Sundown and many more.


The plan going into Phillip Walker's first studio set in nearly a decade (since his last label, Black Top, went belly up) was to revisit some early influences that formed the bluesman's unique approach. Add a few similarly styled originals from producer/Delta Groove label honcho Randy Chortkoff and the results are a comeback of sorts for this classy and underappreciated journeyman guitarist, vocalist, and bandleader. Walker is no stranger to putting his personal stamp on others' songs -- his previous album was also predominantly covers -- but this one takes him back to his roots, as its title infers. He gets into a John Lee Hooker/New Orleans groove on Frankie Lee Sims' "Walking with Frankie"; slows things down on a swampy "Sweet Home New Orleans" with help from its writer, Al Blake, on harmonica; and strips the instrumentation to a core of harp, sparse drums, and tasty guitar for an emotional spin on Lightnin' Hopkins' "Don't Think 'Cause You're Pretty." He burns through Lonesome Sundown's shuffle "Leave My Money Alone" and gets lowdown with Ray Charles' "Blackjack." A backup band of talented vets lends support with a sympathetic vibe throughout. Established guitarist Rusty Zinn generally sticks to rhythm but takes lead duties on three tracks, including a peppy version of Eddie Shaw's "Mean Mean Woman," where his more driving attack meshes nicely with Walker's subtler touch. Jeff Turmes' bass work, especially on standup, provides a sturdy yet flexible bottom that perfectly supports Walker's affable vocals and stylish guitar work. Walker sounds like he's having a blast, and you can practically see the smile on his face as he greets these songs like the old friends they are. The session gels with an effortless vibe like the finest blues discs, and shows just how vital Walker remains, especially with a sympathetic producer, classy material, and a great band behind him.

Review by Hal Horowitz, Allmusic.com







Tracklist:

01. Lying Woman (03:09)
02. Mam Bring Your Clothes Back Home (04:24)
03. Mean Mean Woman (04:09)
04. Blackjack (03:44)
05. Honey Stew (03:15)
06. Don't Think 'Cause You're Pretty (03:55)
07. Leave My Money Alone (03:11)
08. Bad Blood (03:52)
09. Lay You Down (05:15)
10. If You See My Baby (02:56)
11. Sweet Home New Orleans (02:32)
12. Happy Man Blues (03:02)
13. Walking With Frankie (04:54)


Exact Audio Copy V0.99 prebeta 5 from 4. May 2009

Отчёт EAC об извлечении, выполненном 18. ноября 2015, 15:31

Phillip Walker / Going Back Home

Дисковод: ASUS DRW-24F1ST a Adapter: 0 ID: 0

Режим чтения : Достоверность
Использование точного потока : Да
Отключение кэша аудио : Да
Использование указателей C2 : Нет

Коррекция смещения при чтении : 6
Способность читать области Lead-in и Lead-out : Нет
Заполнение пропущенных сэмплов тишиной : Да
Удаление блоков с тишиной в начале и конце : Нет
При вычислениях CRC использовались нулевые сэмплы : Да
Интерфейс : Встроенный Win32-интерфейс для Win NT/2000

Выходной формат : Пользовательский кодировщик
Выбранный битрейт : 768 kBit/s
Качество : Высокий
Добавление ID3-тэга : Нет
Утилита сжатия : D:5. Other1. ProgrammesExact Audio CopyFLACFLAC.EXE
Дополнительные параметры : -6 -V -T "ARTIST=%a" -T "TITLE=%t" -T "ALBUM=%g" -T "DATE=%y" -T "TRACKNUMBER=%n" -T "GENRE=%m" -T "COMMENT=%e" %s -o %d


TOC извлечённого CD

Трек | Старт | Длительность | Начальный сектор | Конечный сектор
---------------------------------------------------------------------
1 | 0:00.00 | 3:09.70 | 0 | 14244
2 | 3:09.70 | 4:24.71 | 14245 | 34115
3 | 7:34.66 | 4:09.53 | 34116 | 52843
4 | 11:44.44 | 3:44.19 | 52844 | 69662
5 | 15:28.63 | 3:15.45 | 69663 | 84332
6 | 18:44.33 | 3:55.48 | 84333 | 102005
7 | 22:40.06 | 3:11.22 | 102006 | 116352
8 | 25:51.28 | 3:52.70 | 116353 | 133822
9 | 29:44.23 | 5:15.00 | 133823 | 157447
10 | 34:59.23 | 2:56.00 | 157448 | 170647
11 | 37:55.23 | 2:32.56 | 170648 | 182103
12 | 40:28.04 | 3:02.59 | 182104 | 195812
13 | 43:30.63 | 4:54.60 | 195813 | 217922


Характеристики диапазона извлечения и сообщения об ошибках

Выбранный диапазон

Имя файла D:Phillip Walker - Going Back Home (2007)Phillip Walker - Going Back Home.wav

Пиковый уровень 100.0 %
Качество диапазона 100.0 %
CRC теста A727250C
CRC копии A727250C
Копирование... OK

Ошибок не произошло


AccurateRip: сводка

Трек 1 точное извлечение (доверие 6) [FA57FBD3]
Трек 2 точное извлечение (доверие 6) [FA5CA35E]
Трек 3 точное извлечение (доверие 6) [630E3862]
Трек 4 точное извлечение (доверие 6) [C29130DE]
Трек 5 точное извлечение (доверие 6) [91AB82B9]
Трек 6 точное извлечение (доверие 6) [83A784D5]
Трек 7 точное извлечение (доверие 6) [43BA6661]
Трек 8 точное извлечение (доверие 6) [91ED3A36]
Трек 9 точное извлечение (доверие 6) [FC367DC1]
Трек 10 точное извлечение (доверие 6) [86B40332]
Трек 11 точное извлечение (доверие 6) [2C437197]
Трек 12 точное извлечение (доверие 6) [00E617BC]
Трек 13 точное извлечение (доверие 6) [FE7CD427]

Все треки извлечены точно

Конец отчёта

foobar2000 1.3.8 / Dynamic Range Meter 1.1.1
log date: 2015-11-18 23:22:16

--------------------------------------------------------------------------------
Analyzed: Phillip Walker / Going Back Home
--------------------------------------------------------------------------------

DR Peak RMS Duration Track
--------------------------------------------------------------------------------
DR9 0.00 dB -10.16 dB 3:10 01-Lying Woman
DR10 0.00 dB -11.77 dB 4:25 02-Mam Bring Your Clothes Back Home
DR8 0.00 dB -9.76 dB 4:10 03-Mean Mean Woman
DR10 0.00 dB -10.98 dB 3:44 04-Blackjack
DR9 0.00 dB -10.73 dB 3:16 05-Honey Stew
DR10 0.00 dB -12.39 dB 3:56 06-Don't Think 'Cause You're Pretty
DR9 0.00 dB -10.34 dB 3:11 07-Leave My Money Alone
DR10 0.00 dB -11.95 dB 3:53 08-Bad Blood
DR8 0.00 dB -9.01 dB 5:15 09-Lay You Down
DR7 0.00 dB -8.66 dB 2:56 10-If You See My Baby
DR9 0.00 dB -11.05 dB 2:33 11-Sweet Home New Orleans
DR10 0.00 dB -10.88 dB 3:03 12-Happy Man Blues
DR10 0.00 dB -10.98 dB 4:55 13-Walking With Frankie
--------------------------------------------------------------------------------

Number of tracks: 13
Official DR value: DR9

Samplerate: 44100 Hz
Channels: 2
Bits per sample: 16
Bitrate: 846 kbps
Codec: FLAC
================================================================================



All thanks to original releaser - lukya