Вход в свой аккаунт

Или войдите через соц. сети

VA - Sliver: Music From The Motion Picture (1993) UB40, Enigma, Massive Attack, Shaggy, Neneh Cherry etc


VA - Sliver: Music From The Motion Picture (1993) UB40, Enigma, Massive Attack, Shaggy, Neneh Cherry etc
EAC | FLAC | Tracks (Cue&Log) ~ 438 Mb (incl 5%) | Mp3 (CBR320) ~ 176 Mb (incl 5%) | Scans included
Genre: Soundtrack | Label: Virgin Records America | # CDVMM 11 | Time: 00:59:06

“ Too bad the film "Sliver" wasn't a hit, or else this could've been one of the greatest film soundtracks of all-time. While most soundtracks just throw songs together without much thought, there's a theme on this album. You can feel the atmosphere of loneliness, lust, and mystery even if you've never seen the film. Enigma's haunting "Carly's Song" and "Carly's Loneliness" are great tracks to get you in a trance, Massive Attack's "Unfinished Symphony" is downright sexy, and Aftershock's "Slave To The Vibe" is the album's showstopper. The film (which was beautifully shot in an MTV style) could rightfully be a showcase just for these songs, kinda like "Purple Rain". I've had this CD for almost seven years now, and it's still one that can't seem to leave my CD player.

Review by Roburt, Amazon.com
”





Tracklist:

01. UB40 - Can't Help Falling In Love (03:26)
02. Enigma - Carly's Song (03:49)
03. Fluke - Slid (03:46)
04. Massive Attack - Unfinished Sympathy (05:09)
05. Lords of Acid - The Most Wonderful Girl (04:47)
06. Shaggy - Oh Carolina (03:06)
07. Neneh Cherry - Move With Me (05:20)
08. Enigma - Principles Of Lust (Radio Edit) (03:24)
09. Aftershock - Slave To The Vibe (05:45)
10. Heaven 17 - Penthouse And Pavement (03:58)
11. The Young Gods - Skinflowers (05:08)
12. Verve - Star Sail (03:58)
13. Bigod 20 - Wild At Heart (04:15)
14. Enigma - Carly's Loneliness (03:11)


Exact Audio Copy V1.0 beta 3 from 29. August 2011

EAC extraction logfile from 12. July 2014, 14:39

Various Artists / Sliver (Music From The Motion Picture)

Used drive : ASUS BW-12B1ST Adapter: 0 ID: 0

Read mode : Secure
Utilize accurate stream : Yes
Defeat audio cache : Yes
Make use of C2 pointers : No

Read offset correction : 6
Overread into Lead-In and Lead-Out : No
Fill up missing offset samples with silence : Yes
Delete leading and trailing silent blocks : No
Null samples used in CRC calculations : Yes
Used interface : Installed external ASPI interface
Gap handling : Appended to previous track

Used output format : User Defined Encoder
Selected bitrate : 1024 kBit/s
Quality : High
Add ID3 tag : No
Command line compressor : C:Program Files (x86)FLACflac.exe
Additional command line options : -8 -V -T "ARTIST=%artist%" -T "TITLE=%title%" -T "ALBUM=%albumtitle%" -T "DATE=%year%" -T "TRACKNUMBER=%tracknr%" -T "GENRE=%genre%" -T "COMMENT=" %source%


TOC of the extracted CD

Track | Start | Length | Start sector | End sector
---------------------------------------------------------
1 | 0:00.00 | 3:26.62 | 0 | 15511
2 | 3:26.62 | 3:49.00 | 15512 | 32686
3 | 7:15.62 | 3:46.03 | 32687 | 49639
4 | 11:01.65 | 5:09.25 | 49640 | 72839
5 | 16:11.15 | 4:47.32 | 72840 | 94396
6 | 20:58.47 | 3:06.35 | 94397 | 108381
7 | 24:05.07 | 5:20.53 | 108382 | 132434
8 | 29:25.60 | 3:24.05 | 132435 | 147739
9 | 32:49.65 | 5:45.20 | 147740 | 173634
10 | 38:35.10 | 3:58.05 | 173635 | 191489
11 | 42:33.15 | 5:08.25 | 191490 | 214614
12 | 47:41.40 | 3:58.17 | 214615 | 232481
13 | 51:39.57 | 4:15.03 | 232482 | 251609
14 | 55:54.60 | 3:11.55 | 251610 | 265989


Track 1

Filename E:Various Artists - Sliver (Music From The Motion Picture) (1993)1 UB40 - Can't Help Falling In Love.wav

Pre-gap length 0:00:02.00

Peak level 94.6 %
Extraction speed 3.8 X
Track quality 99.9 %
Test CRC 7F2C0B1F
Copy CRC 7F2C0B1F
Accurately ripped (confidence 21) [489BE7F6] (AR v2)
Copy OK

Track 2

Filename E:Various Artists - Sliver (Music From The Motion Picture) (1993)2 Enigma - Carly's Song.wav

Pre-gap length 0:00:02.33

Peak level 89.5 %
Extraction speed 5.2 X
Track quality 100.0 %
Test CRC F31C4F30
Copy CRC F31C4F30
Accurately ripped (confidence 22) [E6730BD0] (AR v2)
Copy OK

Track 3

Filename E:Various Artists - Sliver (Music From The Motion Picture) (1993)3 Fluke - Slid.wav

Pre-gap length 0:00:02.62

Peak level 86.9 %
Extraction speed 5.7 X
Track quality 100.0 %
Test CRC 58EA3C0B
Copy CRC 58EA3C0B
Accurately ripped (confidence 21) [A34CFA41] (AR v2)
Copy OK

Track 4

Filename E:Various Artists - Sliver (Music From The Motion Picture) (1993)4 Massive Attack - Unfinished Sympathy.wav

Pre-gap length 0:00:01.97

Peak level 84.2 %
Extraction speed 6.3 X
Track quality 100.0 %
Test CRC 2A6DDD80
Copy CRC 2A6DDD80
Accurately ripped (confidence 21) [582ECF51] (AR v2)
Copy OK

Track 5

Filename E:Various Artists - Sliver (Music From The Motion Picture) (1993)5 Lords of Acid - The Most Wonderful Girl.wav

Pre-gap length 0:00:01.73

Peak level 89.5 %
Extraction speed 6.8 X
Track quality 100.0 %
Test CRC 57C6BAE2
Copy CRC 57C6BAE2
Accurately ripped (confidence 21) [A193A454] (AR v2)
Copy OK

Track 6

Filename E:Various Artists - Sliver (Music From The Motion Picture) (1993)6 Shaggy - Oh Carolina.wav

Pre-gap length 0:00:01.93

Peak level 95.8 %
Extraction speed 6.7 X
Track quality 100.0 %
Test CRC E217D655
Copy CRC E217D655
Accurately ripped (confidence 22) [438E9564] (AR v2)
Copy OK

Track 7

Filename E:Various Artists - Sliver (Music From The Motion Picture) (1993)7 Neneh Cherry - Move With Me.wav

Pre-gap length 0:00:01.86

Peak level 97.2 %
Extraction speed 6.5 X
Track quality 99.9 %
Test CRC 558B34FA
Copy CRC 558B34FA
Accurately ripped (confidence 22) [31F7FE58] (AR v2)
Copy OK

Track 8

Filename E:Various Artists - Sliver (Music From The Motion Picture) (1993)8 Enigma - Principles Of Lust (Radio Edit).wav

Pre-gap length 0:00:01.64

Peak level 100.0 %
Extraction speed 7.5 X
Track quality 100.0 %
Test CRC 8D4319D9
Copy CRC 8D4319D9
Accurately ripped (confidence 22) [47BB141D] (AR v2)
Copy OK

Track 9

Filename E:Various Artists - Sliver (Music From The Motion Picture) (1993)9 Aftershock - Slave To The Vibe.wav

Pre-gap length 0:00:01.90

Peak level 92.0 %
Extraction speed 7.3 X
Track quality 99.9 %
Test CRC 316A938A
Copy CRC 316A938A
Accurately ripped (confidence 22) [701D691C] (AR v2)
Copy OK

Track 10

Filename E:Various Artists - Sliver (Music From The Motion Picture) (1993)10 Heaven 17 - Penthouse And Pavement.wav

Pre-gap length 0:00:01.37

Peak level 97.2 %
Extraction speed 6.9 X
Track quality 99.9 %
Test CRC 1DE540B0
Copy CRC 1DE540B0
Accurately ripped (confidence 22) [FB833E0D] (AR v2)
Copy OK

Track 11

Filename E:Various Artists - Sliver (Music From The Motion Picture) (1993)11 The Young Gods - Skinflowers.wav

Pre-gap length 0:00:01.66

Peak level 91.4 %
Extraction speed 8.9 X
Track quality 100.0 %
Test CRC 0F10DFD0
Copy CRC 0F10DFD0
Accurately ripped (confidence 20) [6DAFBA20] (AR v2)
Copy OK

Track 12

Filename E:Various Artists - Sliver (Music From The Motion Picture) (1993)12 Verve - Star Sail.wav

Pre-gap length 0:00:01.53

Peak level 97.2 %
Extraction speed 8.9 X
Track quality 100.0 %
Test CRC 31D7DE98
Copy CRC 31D7DE98
Accurately ripped (confidence 22) [9448E52D] (AR v2)
Copy OK

Track 13

Filename E:Various Artists - Sliver (Music From The Motion Picture) (1993)13 Bigod 20 - Wild At Heart.wav

Pre-gap length 0:00:01.62

Peak level 94.6 %
Extraction speed 9.3 X
Track quality 100.0 %
Test CRC 17DA7348
Copy CRC 17DA7348
Accurately ripped (confidence 21) [F9A17F33] (AR v2)
Copy OK

Track 14

Filename E:Various Artists - Sliver (Music From The Motion Picture) (1993)14 Enigma - Carly's Loneliness.wav

Pre-gap length 0:00:01.77

Peak level 95.5 %
Extraction speed 9.1 X
Track quality 100.0 %
Test CRC D8478F56
Copy CRC D8478F56
Accurately ripped (confidence 21) [0964E212] (AR v2)
Copy OK


All tracks accurately ripped

No errors occurred

End of status report

==== Log checksum 70F82B0B90080E71E36626E9F741428F874AF1A99AC55F03E5F39F2EF8B8F812 ====

foobar2000 1.3.8 / Dynamic Range Meter 1.1.1
log date: 2015-11-19 18:01:25

--------------------------------------------------------------------------------
Analyzed: Aftershock / Sliver (Music From The Motion Picture) (1)
Bigod 20 / Sliver (Music From The Motion Picture) (2)
Enigma / Sliver (Music From The Motion Picture) (3-5)
Fluke / Sliver (Music From The Motion Picture) (6)
Heaven 17 / Sliver (Music From The Motion Picture) (7)
Lords of Acid / Sliver (Music From The Motion Picture) (8)
Massive Attack / Sliver (Music From The Motion Picture) (9)
Neneh Cherry / Sliver (Music From The Motion Picture) (10)
Shaggy / Sliver (Music From The Motion Picture) (11)
The Young Gods / Sliver (Music From The Motion Picture) (12)
UB40 / Sliver (Music From The Motion Picture) (13)
Verve / Sliver (Music From The Motion Picture) (14)
--------------------------------------------------------------------------------

DR Peak RMS Duration Track
--------------------------------------------------------------------------------
DR8 -0.72 dB -10.53 dB 5:45 09-Slave To The Vibe
DR10 -0.48 dB -12.77 dB 4:15 13-Wild At Heart
DR7 -0.95 dB -10.02 dB 3:49 02-Carly's Song
DR12 0.00 dB -14.45 dB 3:24 08-Principles Of Lust (Radio Edit)
DR11 -0.39 dB -13.22 dB 3:12 14-Carly's Loneliness
DR12 -1.22 dB -14.04 dB 3:46 03-Slid
DR11 -0.24 dB -12.94 dB 3:58 10-Penthouse And Pavement
DR10 -0.95 dB -12.41 dB 4:47 05-The Most Wonderful Girl
DR12 -1.49 dB -15.57 dB 5:09 04-Unfinished Sympathy
DR11 -0.24 dB -13.63 dB 5:21 07-Move With Me
DR11 -0.37 dB -12.66 dB 3:06 06-Oh Carolina
DR10 -0.78 dB -11.88 dB 5:08 11-Skinflowers
DR10 -0.48 dB -12.65 dB 3:27 01-Can't Help Falling In Love
DR10 -0.24 dB -13.00 dB 3:58 12-Star Sail
--------------------------------------------------------------------------------

Number of tracks: 14
Official DR value: DR10

Samplerate: 44100 Hz
Channels: 2
Bits per sample: 16
Bitrate: 895 kbps
Codec: FLAC
================================================================================



All thanks to original releaser - Ragnaroczek