Вход в свой аккаунт

Или войдите через соц. сети

Tiamat - Clouds (1992)


Tiamat - Clouds (1992)
EAC Rip | FLAC, IMG+CUE+LOG | 300 MB | MP3 CBR 320 Kbps | 100 MB | Complete HQ Scans | JPG -> 50 MB
Death/Doom Metal | Label: Century Media #7736-2 | RAR 3% Rec. | Nitroflare.com

“ The 1992 album Clouds was another major step in the quick sonic evolution of Tiamat, as the band continued to scale back their death metal roots while pursuing more conventional song structures. Songwriting contributions from new bassist Johnny Hagel take some of the load off vocalist Johan Edlund, whose improving English-speaking skills and raspy but clear intonations finally let listeners appreciate his esoteric lyrics. Every song on Clouds is distinct in its own way, but it doesn't get much better than "In a Dream" and "The Sleeping Beauty," both of which combine delicate acoustic guitars with crushing riffs and atmospheric keyboards. These same elements are mixed and matched in surprising fashion on "Smell of Incense," "The Scapegoat," and "Forever Burning Flames." The epic "Undressed" closes the album with similar inventiveness and points toward the future.

~ by Eduardo Rivadavia, allmusic.com
”

Tracklist :

1. In a Dream - 5:13
2. Clouds - 3:40
3. Smell of Incense - 4:29
4. A Caress of Stars - 5:27
5. The Sleeping Beauty - 4:11
6. Forever Burning Flames - 4:23
7. The Scapegoat - 4:57
8. Undressed - 7:08

Exact Audio Copy V1.1 from 23. June 2015

EAC extraction logfile from 6. November 2015, 19:23

Tiamat / Clouds

Used drive : Optiarc DVD RW AD-7203A Adapter: 1 ID: 1

Read mode : Secure
Utilize accurate stream : Yes
Defeat audio cache : Yes
Make use of C2 pointers : No

Read offset correction : 48
Overread into Lead-In and Lead-Out : No
Fill up missing offset samples with silence : Yes
Delete leading and trailing silent blocks : No
Null samples used in CRC calculations : Yes
Used interface : Native Win32 interface for Win NT & 2000

Used output format : User Defined Encoder
Selected bitrate : 128 kBit/s
Quality : High
Add ID3 tag : No
Command line compressor : C:Program Files (x86)Exact Audio CopyFlacflac.exe
Additional command line options : -V -8 -T "Date=%year%" -T "Genre=%genre%" %source%


TOC of the extracted CD

Track | Start | Length | Start sector | End sector
---------------------------------------------------------
1 | 0:00.00 | 5:12.47 | 0 | 23446
2 | 5:12.47 | 3:40.25 | 23447 | 39971
3 | 8:52.72 | 4:29.23 | 39972 | 60169
4 | 13:22.20 | 5:26.65 | 60170 | 84684
5 | 18:49.10 | 4:10.40 | 84685 | 103474
6 | 22:59.50 | 4:22.60 | 103475 | 123184
7 | 27:22.35 | 4:56.60 | 123185 | 145444
8 | 32:19.20 | 7:08.07 | 145445 | 177551


Range status and errors

Selected range

Filename C:subrr for trackerTiamat - Clouds.wav

Peak level 98.8 %
Extraction speed 3.8 X
Range quality 100.0 %
Test CRC 0A717B33
Copy CRC 0A717B33
Copy OK

No errors occurred


AccurateRip summary

Track 1 accurately ripped (confidence 2) [1912D72A] (AR v2)
Track 2 accurately ripped (confidence 2) [C4E8B8A6] (AR v2)
Track 3 accurately ripped (confidence 2) [81E62810] (AR v2)
Track 4 accurately ripped (confidence 2) [A59C9891] (AR v2)
Track 5 accurately ripped (confidence 2) [18076F82] (AR v2)
Track 6 accurately ripped (confidence 2) [4CB7DEA8] (AR v2)
Track 7 accurately ripped (confidence 2) [B172447C] (AR v2)
Track 8 accurately ripped (confidence 2) [3E6F31C5] (AR v2)

All tracks accurately ripped

End of status report

---- CUETools DB Plugin V2.1.6

[CTDB TOCID: KkxnIFBl6uae1KF8SfKbqmLwL4Y-] found
Submit result: KkxnIFBl6uae1KF8SfKbqmLwL4Y- has been confirmed
Track | CTDB Status
1 | (106/110) Accurately ripped
2 | (106/110) Accurately ripped
3 | (109/110) Accurately ripped
4 | (107/110) Accurately ripped
5 | (108/110) Accurately ripped
6 | (108/110) Accurately ripped
7 | (106/110) Accurately ripped
8 | (108/110) Accurately ripped


==== Log checksum 6ABE521CA282F95C1B413F8F1D5BB3EC3738EE4C6DA94EEBE1234BBFDE16B409 ====

• Johan Edlund - Vocals, guitars
• Thomas Petersson - Guitars
• Johnny Hagel- Bass
• Niklas Ekstrand - Drums
• Kenneth Roos - Keyboards

Recorded and mixed at the Woodhouse Studio in Dortmund, Germany.
Produced by Waldemar Sorychta
Engineered by Siggi Bemm
Lossless (FLAC)*
http://www.nitroflare.com/view/6FD2AE994C84605/TIAM1992CLLOS.rar

All Covers (JPG)
http://www.nitroflare.com/view/07C8FCC8613CC15/TIAM1992CLJPG.rar

Lossy HQ (320 Kbps CBR)
http://www.nitroflare.com/view/E824D29111861AE/TIAM1992CLMP3.rar

* Original CD -> EAC image, embedded cuesheet & more, foobar2000 ready, etc.
Please, do not write these links at any web pages. Enjoy & keep the files alive!
Huge thanks to Subrr for original CD!