Вход в свой аккаунт

Или войдите через соц. сети

Chris Rea - The Blue Jukebox (2004)


Chris Rea - The Blue Jukebox (2004)
EAC Rip | FLAC (Img) + Cue + Log ~ 413 Mb | MP3 CBR320 ~ 160 Mb
Scans (JPG, 600 dpi) ~ 271 Mb | RAR 5% Recovery
Blues | Edel Records #0153412ERE

“ The Blue Jukebox is the twentieth studio album by Chris Rea, released in 2004. The cover artwork is inspired by Edward Hopper's Nighthawks painting. ”

| | |

***************


Track List:

01. The Beat Goes On [04:33]
02. Long Is The Time, Hard Is The Road [05:18]
03. Let's Do It [05:03]
04. Let It Roll [05:00]
05. Steel River Blues [04:35]
06. Somebody Say Amen [06:12]
07. Blue Street [04:49]
08. Monday Morning [04:06]
09. Restless Soul [05:52]
10. What Kind Of Love Is This [06:38]
11. Paint My Jukebox Blue [04:02]
12. Baby Don't Cry [05:24]
13. Speed [05:05]

Exact Audio Copy V1.0 beta 3 from 29. August 2011

EAC extraction logfile from 11. March 2014, 18:06

Chris Rea / The Blue Jukebox

Used drive : PLEXTOR DVDR PX-891SA Adapter: 0 ID: 2

Read mode : Secure
Utilize accurate stream : Yes
Defeat audio cache : Yes
Make use of C2 pointers : No

Read offset correction : 6
Overread into Lead-In and Lead-Out : No
Fill up missing offset samples with silence : Yes
Delete leading and trailing silent blocks : No
Null samples used in CRC calculations : Yes
Used interface : Installed external ASPI interface

Used output format : User Defined Encoder
Selected bitrate : 320 kBit/s
Quality : High
Add ID3 tag : No
Command line compressor : C:Program FilesExact Audio Copy 1.0Flacflac.exe
Additional command line options : -V -8 -T "Date=%year%" -T "Genre=%genre%" %source%


TOC of the extracted CD

Track | Start | Length | Start sector | End sector
---------------------------------------------------------
1 | 0:00.00 | 4:32.68 | 0 | 20467
2 | 4:32.68 | 5:17.42 | 20468 | 44284
3 | 9:50.35 | 5:02.10 | 44285 | 66944
4 | 14:52.45 | 4:59.43 | 66945 | 89412
5 | 19:52.13 | 4:34.47 | 89413 | 110009
6 | 24:26.60 | 6:11.53 | 110010 | 137887
7 | 30:38.38 | 4:48.67 | 137888 | 159554
8 | 35:27.30 | 4:05.13 | 159555 | 177942
9 | 39:32.43 | 5:51.32 | 177943 | 204299
10 | 45:24.00 | 6:37.48 | 204300 | 234122
11 | 52:01.48 | 4:01.42 | 234123 | 252239
12 | 56:03.15 | 5:23.53 | 252240 | 276517
13 | 61:26.68 | 5:04.65 | 276518 | 299382
14 | 69:03.58 | 10:24.17 | 310783 | 357599


Range status and errors

Selected range

Filename K:Lossless TempChris ReaChris Rea - The Blue Jukebox - 2004 (2004 Edel Records, 0153412ERE, Germany)Chris Rea - The Blue Jukebox.wav

Peak level 98.8 %
Extraction speed 5.1 X
Range quality 100.0 %
Test CRC 224FCFE3
Copy CRC 224FCFE3
Copy OK

No errors occurred


AccurateRip summary

Track 1 accurately ripped (confidence 28) [519DADEF] (AR v2)
Track 2 accurately ripped (confidence 28) [97635E48] (AR v2)
Track 3 accurately ripped (confidence 28) [20B5ABDA] (AR v2)
Track 4 accurately ripped (confidence 28) [C8B2C66E] (AR v2)
Track 5 accurately ripped (confidence 28) [CC5D93DF] (AR v2)
Track 6 accurately ripped (confidence 28) [2BD16AF2] (AR v2)
Track 7 accurately ripped (confidence 28) [516E3CE0] (AR v2)
Track 8 accurately ripped (confidence 28) [3FFA047D] (AR v2)
Track 9 accurately ripped (confidence 28) [2DB10A42] (AR v2)
Track 10 accurately ripped (confidence 28) [B4F43D8C] (AR v2)
Track 11 accurately ripped (confidence 27) [4D11225B] (AR v2)
Track 12 accurately ripped (confidence 27) [80F45CE8] (AR v2)
Track 13 accurately ripped (confidence 27) [1CD00FB8] (AR v2)

All tracks accurately ripped

End of status report

==== Log checksum 0FBD52ABD9566A6D008E059D6864FF3BDAC3810D333C1C7A77DB868D7E3FD413 ====

foobar2000 1.2.6 / Dynamic Range Meter 1.1.1
log date: 2015-11-22 11:28:25

--------------------------------------------------------------------------------
Analyzed: Chris Rea / The Blue Jukebox
--------------------------------------------------------------------------------

DR Peak RMS Duration Track
--------------------------------------------------------------------------------
DR8 -0.18 dB -9.62 dB 4:33 01-The Beat Goes On
DR6 -0.18 dB -9.66 dB 5:18 02-Long Is The Time, Hard Is The Road
DR7 -0.14 dB -10.54 dB 5:02 03-Let's Do It
DR8 -0.18 dB -11.82 dB 5:00 04-Let It Roll
DR9 -0.17 dB -11.76 dB 4:35 05-Steel River Blues
DR11 -0.18 dB -13.24 dB 6:12 06-Somebody Say Amen
DR10 -0.10 dB -13.59 dB 4:49 07-Blue Street
DR8 -0.12 dB -11.29 dB 4:05 08-Monday Morning
DR9 -0.12 dB -10.79 dB 5:51 09-Restless Soul
DR9 -0.18 dB -12.72 dB 6:38 10-What Kind Of Love Is This
DR9 -0.17 dB -11.52 dB 4:02 11-Paint My Jukebox Blue
DR8 -0.14 dB -11.10 dB 5:24 12-Baby Don't Cry
DR7 -0.14 dB -9.06 dB 5:05 13-Speed
--------------------------------------------------------------------------------

Number of tracks: 13
Official DR value: DR8

Samplerate: 44100 Hz
Channels: 2
Bits per sample: 16
Bitrate: 827 kbps
Codec: FLAC
================================================================================

[CUETools log; Date: 22.11.2015 11:28:19; Version: 2.1.5]
CD-Extra data track length 10:24:17.
[CTDB TOCID: 9XFmyZ6t.mt7yWL7NpUBJLSVgWM-] found.
Track | CTDB Status
1 | (140/144) Accurately ripped
2 | (140/144) Accurately ripped
3 | (141/144) Accurately ripped
4 | (141/144) Accurately ripped
5 | (141/144) Accurately ripped
6 | (141/144) Accurately ripped
7 | (141/144) Accurately ripped
8 | (140/144) Accurately ripped
9 | (140/144) Accurately ripped
10 | (141/144) Accurately ripped
11 | (139/144) Accurately ripped
12 | (139/144) Accurately ripped
13 | (140/144) Accurately ripped
[AccurateRip ID: 00208558-014a2c3f-d312a00e] found.
Track [ CRC | V2 ] Status
01 [4f554e64|519dadef] (029+039/154) Accurately ripped
02 [78f866f5|97635e48] (029+039/154) Accurately ripped
03 [923a5ef7|20b5abda] (029+039/155) Accurately ripped
04 [2bace4ac|c8b2c66e] (029+039/153) Accurately ripped
05 [8380965d|cc5d93df] (029+039/155) Accurately ripped
06 [8a58f37c|2bd16af2] (028+039/152) Accurately ripped
07 [35c49514|516e3ce0] (028+039/151) Accurately ripped
08 [d2a24296|3ffa047d] (029+039/152) Accurately ripped
09 [ddb28cf0|2db10a42] (029+039/151) Accurately ripped
10 [e64e282c|b4f43d8c] (028+039/150) Accurately ripped
11 [b6274757|4d11225b] (029+038/152) Accurately ripped
12 [d50c350c|80f45ce8] (029+038/151) Accurately ripped
13 [18976530|1cd00fb8] (028+038/151) Accurately ripped
Offsetted by -12:
01 [d92a1a04] (040/154) Accurately ripped
02 [2add16f1] (040/154) Accurately ripped
03 [936894eb] (041/155) Accurately ripped
04 [1c63b17c] (040/153) Accurately ripped
05 [d7a711b1] (041/155) Accurately ripped
06 [35abd44c] (039/152) Accurately ripped
07 [05cece80] (038/151) Accurately ripped
08 [a8d9a566] (039/152) Accurately ripped
09 [488c99d8] (038/151) Accurately ripped
10 [5cabff90] (038/150) Accurately ripped
11 [2c1b4e57] (040/152) Accurately ripped
12 [d21d3d28] (039/151) Accurately ripped
13 [f6e793de] (039/151) Accurately ripped

Track Peak [ CRC32 ] [W/O NULL] [ LOG ]
-- 98,8 [224FCFE3] [980C5222] CRC32
01 98,0 [2CDF3784] [38305840]
02 98,0 [DDDFF4ED] [E9D19DAC]
03 98,4 [C9EDB1DD] [6E29B0E3]
04 98,0 [862B1B9E] [C74DDD42]
05 98,0 [D7B27557] [72106C69]
06 98,0 [3AF06483] [31FA06ED]
07 98,8 [3281D032] [BFC14E20]
08 98,6 [0E826240] [63F2AF27]
09 98,6 [EAFA398A] [7FD4A7A9]
10 98,0 [7080215B] [2696F599]
11 98,0 [69236DD1] [998F0231]
12 98,3 [7A72DC73] [FA7393E9]
13 98,4 [B13DB20D] [1A7F22D0]



All thanks go to Swamp Fox

No mirrors, please!

Download: