B.B. King - Live (2008)


B.B. King - Live (2008)
EAC | FLAC | Image (Cue&Log) ~ 370 Mb (incl 5%) | Mp3 (CBR320) ~ 139 Mb (incl 5%) | Scans included
Genre: Modern Electric Blues, Soul-Blues | Label: Geffen | # 00602517445574 | Time: 00:53:08

Recorded in the fall of 2006, shortly after B.B. King's 81st birthday, Live is really an abridged audio complement to a video release, containing 12 of the 19 tracks available on the DVD of the same title. King has made a lot of live albums in his time, but his approach hasn't changed much over the years. In addition to his obvious talents as a guitarist and showman, he has also been fortunate in that his chosen style of music, a version of the blues growing out of the swing-influenced jump blues of the 1940s, has not only remained perennially popular but grown in acceptance. As performed here by the B.B. King Blues Band, it is still essentially the same, a jazzy roadhouse music that leaves plenty of room for solos. At one time, most of those solos were played by King on his guitar, but now he is content to give the showcase to his horn players, as he does on "Blues Man," or organist James Toney, who claims the lion's share of "Rock Me Baby." There is still plenty of guitar work, however, and King remains seemingly as agile as ever. He is also a relaxed, comfortable frontman, engaging in easy banter with both band and audience. And he even seems at peace with the notion that the road can't go on forever. "Key to the Highway" has something of an elegiac tone, and it ends with a promise that for King seems to be no more than a simple statement of fact: "I'm gonna do this till I die, folks."

Review by William Ruhlmann, Allmusic.com








Tracklist:

01. Mr. King Comes On Stage (B.B. King's Band) (02:46)
02. Why I Sing The Blues (03:34)
03. I Need You So (05:26)
04. Bad Case Of Love (02:34)
05. Blues Man (06:22)
06. When Love Comes To Town (05:48)
07. All Over Again (05:51)
08. You Are My Sunshine (03:23)
09. Rock Me Baby (05:32)
10. Key To The Highway (04:30)
11. The Thrill Is Gone (04:39)
12. When The Saints Go Marching In (02:37)


Exact Audio Copy V1.0 beta 6 from 9. April 2015

Отчёт EAC об извлечении, выполненном 9. августа 2015, 13:27

B.B. King / Live

Дисковод: HL-DT-STDVD-RAM GH22NP20 Adapter: 1 ID: 0

Режим чтения : Достоверность
Использование точного потока : Да
Отключение кэша аудио : Да
Использование указателей C2 : Нет

Коррекция смещения при чтении : 102
Способность читать области Lead-in и Lead-out : Нет
Заполнение пропущенных сэмплов тишиной : Да
Удаление блоков с тишиной в начале и конце : Нет
При вычислениях CRC использовались нулевые сэмплы : Да
Интерфейс : Встроенный Win32-интерфейс для Win NT/2000

Выходной формат : Пользовательский кодировщик
Выбранный битрейт : 1024 kBit/s
Качество : Высокий
Добавление ID3-тега : Нет
Утилита сжатия : C:Program Files (x86)Exact Audio CopyFLACFLAC.EXE
Дополнительные параметры : -8 -V -T "ARTIST=%artist%" -T "ALBUM=%albumtitle%" -T "DATE=%year%" -T "GENRE=%genre%" -T "COMMENT=ripped by pmx222" %source%


TOC извлечённого CD

Трек | Старт | Длительность | Начальный сектор | Конечный сектор
---------------------------------------------------------------------
1 | 0:00.00 | 2:46.01 | 0 | 12450
2 | 2:46.01 | 3:34.39 | 12451 | 28539
3 | 6:20.40 | 5:26.32 | 28540 | 53021
4 | 11:46.72 | 2:34.03 | 53022 | 64574
5 | 14:21.00 | 6:22.44 | 64575 | 93268
6 | 20:43.44 | 5:48.65 | 93269 | 119433
7 | 26:32.34 | 5:51.41 | 119434 | 145799
8 | 32:24.00 | 3:23.55 | 145800 | 161079
9 | 35:47.55 | 5:32.10 | 161080 | 185989
10 | 41:19.65 | 4:30.18 | 185990 | 206257
11 | 45:50.08 | 4:39.58 | 206258 | 227240
12 | 50:29.66 | 2:37.66 | 227241 | 239081


Характеристики диапазона извлечения и сообщения об ошибках

Выбранный диапазон

Имя файла D:pmx222B.B. King - Live.wav

Пиковый уровень 99.4 %
Скорость извлечения 7.0 X
Качество диапазона 100.0 %
CRC теста 2D4FA42B
CRC копии 2D4FA42B
Копирование... OK

Ошибок не произошло


AccurateRip: сводка

Трек 1 : извлечено точно (доверие 15) [0D32718C] (AR v2)
Трек 2 : извлечено точно (доверие 15) [FB75B244] (AR v2)
Трек 3 : извлечено точно (доверие 15) [7ED6F448] (AR v2)
Трек 4 : извлечено точно (доверие 16) [E40AD6B0] (AR v2)
Трек 5 : извлечено точно (доверие 16) [B3C339F3] (AR v2)
Трек 6 : извлечено точно (доверие 15) [FA51D6EF] (AR v2)
Трек 7 : извлечено точно (доверие 14) [F3192762] (AR v2)
Трек 8 : извлечено точно (доверие 14) [D840FA0F] (AR v2)
Трек 9 : извлечено точно (доверие 16) [B26A1BD4] (AR v2)
Трек 10 : извлечено точно (доверие 15) [92B776A6] (AR v2)
Трек 11 : извлечено точно (доверие 16) [02BB3243] (AR v2)
Трек 12 : извлечено точно (доверие 16) [0D7F01E0] (AR v2)

Все треки извлечены точно

Конец отчёта

---- CUETools DB Plugin V2.1.6

[CTDB TOCID: 5Ce1Ymy.o7NY_dFdb1.ykthos1M-] found
Submit result: already submitted
Track | CTDB Status
1 | (12/12) Accurately ripped
2 | (11/12) Accurately ripped
3 | (11/12) Accurately ripped
4 | (12/12) Accurately ripped
5 | (12/12) Accurately ripped
6 | (12/12) Accurately ripped
7 | (11/12) Accurately ripped
8 | (12/12) Accurately ripped
9 | (12/12) Accurately ripped
10 | (12/12) Accurately ripped
11 | (12/12) Accurately ripped
12 | (12/12) Accurately ripped


==== Контрольная сумма отчёта 810BF90CF58F606C86D04DFA3CA680246C0E632008953E4FA4919A3EDEFF4D4C ====

foobar2000 1.3.8 / Dynamic Range Meter 1.1.1
log date: 2015-11-23 16:20:46

--------------------------------------------------------------------------------
Analyzed: B.B. King / Live
--------------------------------------------------------------------------------

DR Peak RMS Duration Track
--------------------------------------------------------------------------------
DR8 -0.10 dB -10.62 dB 2:46 01-Mr. King Comes On Stage (B.B. King's Band)
DR8 -0.04 dB -10.28 dB 3:35 02-Why I Sing The Blues
DR8 -0.10 dB -11.97 dB 5:26 03-I Need You So
DR8 -0.10 dB -10.16 dB 2:34 04-Bad Case Of Love
DR8 -0.10 dB -11.26 dB 6:23 05-Blues Man
DR8 -0.10 dB -10.74 dB 5:49 06-When Love Comes To Town
DR8 -0.10 dB -11.08 dB 5:52 07-All Over Again
DR9 -0.10 dB -13.37 dB 3:24 08-You Are My Sunshine
DR8 -0.10 dB -10.10 dB 5:32 09-Rock Me Baby
DR9 -0.10 dB -13.03 dB 4:30 10-Key To The Highway
DR6 -0.10 dB -8.54 dB 4:40 11-The Thrill Is Gone
DR8 -0.10 dB -10.27 dB 2:38 12-When The Saints Go Marching In
--------------------------------------------------------------------------------

Number of tracks: 12
Official DR value: DR8

Samplerate: 44100 Hz
Channels: 2
Bits per sample: 16
Bitrate: 898 kbps
Codec: FLAC
================================================================================



All thanks to original releaser - рмх222