Вход в свой аккаунт

Или войдите через соц. сети

Clifton - We Never Change (2006)


Clifton - We Never Change (2006)
EAC Rip | FLAC (Img) + Cue + Log ~ 315 Mb | MP3 CBR320 ~ 96 Mb
Scans (JPG, 400 dpi) ~ 43 Mb | RAR 5% Recovery
Metalcore | Abacus Recordings #ABA0037

“ Forming over 6 years ago, Salt Lake City natives Clifton blend classic North American metal (Pantera, Metallica) with a southern dissonance (EyeHateGod, Crowbar) and have crafted a stellar debut we like to call, "We Never Change". Recording in the fall of '05 the band spent their formative years performing locally with bands like Sworn Enemy, Kittie, Cave In and others at venues like the legendary Skrappys. The band has also made four trips touring North America with Destroy the Runner (Solid State Records) and Lorane Drive (Lobster Records).
~ Amazon
”

|

***************


Track List:

01. Triple Belly o Poo [03:23]
02. Promisha [04:35]
03. Table Full of Giggles [04:07]
04. Walters Look of Conviction [04:37]
05. Sir Interruptsalot [03:09]
06. Your Hand Smells Like a Bad Attitude [04:02]
07. Feels Like Guts [03:56]
08. We Never Change [02:52]
09. And Then I Touched His Freddy Krueger [04:47]
10. Hangin With Nature [04:30]

Exact Audio Copy V1.0 beta 3 from 29. August 2011

EAC extraction logfile from 24. November 2015, 0:25

Clifton / We Never Change

Used drive : PIONEER BD-RW BDR-TD03 Adapter: 0 ID: 1

Read mode : Secure
Utilize accurate stream : Yes
Defeat audio cache : Yes
Make use of C2 pointers : No

Read offset correction : 667
Overread into Lead-In and Lead-Out : No
Fill up missing offset samples with silence : Yes
Delete leading and trailing silent blocks : No
Null samples used in CRC calculations : Yes
Used interface : Native Win32 interface for Win NT & 2000

Used output format : User Defined Encoder
Selected bitrate : 768 kBit/s
Quality : High
Add ID3 tag : No
Command line compressor : C:Program Files (x86)Exact Audio CopyFLACFLAC.EXE
Additional command line options : -6 -V -T "ARTIST=%artist%" -T "TITLE=%title%" -T "ALBUM=%albumtitle%" -T "DATE=%year%" -T "TRACKNUMBER=%tracknr%" -T "GENRE=%genre%" -T "COMMENT=%comment%" -T "BAND=%albuminterpret%" -T "ALBUMARTIST=%albuminterpret%" -T "COMPOSER=%composer%" %haslyrics%--tag-from-file=LYRICS="%lyricsfile%"%haslyrics% -T "DISCNUMBER=%cdnumber%" -T "TOTALDISCS=%totalcds%" -T "TOTALTRACKS=%numtracks%" %hascover%--picture="%coverfile%"%hascover% %source% -o %dest%


TOC of the extracted CD

Track | Start | Length | Start sector | End sector
---------------------------------------------------------
1 | 0:00.00 | 3:22.13 | 0 | 15162
2 | 3:22.13 | 4:35.00 | 15163 | 35787
3 | 7:57.13 | 4:06.45 | 35788 | 54282
4 | 12:03.58 | 4:36.60 | 54283 | 75042
5 | 16:40.43 | 3:08.11 | 75043 | 89153
6 | 19:48.54 | 4:01.12 | 89154 | 107240
7 | 23:49.66 | 3:55.44 | 107241 | 124909
8 | 27:45.35 | 2:51.07 | 124910 | 137741
9 | 30:36.42 | 4:46.32 | 137742 | 159223
10 | 35:22.74 | 4:29.35 | 159224 | 179433


Range status and errors

Selected range

Filename C:UsersDerisDesktop...cliftonClifton - We Never Change.wav

Peak level 100.0 %
Extraction speed 4.3 X
Range quality 100.0 %
Test CRC C0378A15
Copy CRC C0378A15
Copy OK

No errors occurred


AccurateRip summary

Track 1 accurately ripped (confidence 1) [1F3D1996] (AR v1)
Track 2 accurately ripped (confidence 1) [04995762] (AR v1)
Track 3 accurately ripped (confidence 1) [968942BD] (AR v1)
Track 4 accurately ripped (confidence 1) [DDCCBDAC] (AR v1)
Track 5 accurately ripped (confidence 1) [FB5C1F75] (AR v1)
Track 6 accurately ripped (confidence 1) [F0F515AB] (AR v1)
Track 7 accurately ripped (confidence 1) [EA0C3986] (AR v1)
Track 8 accurately ripped (confidence 1) [7BF3C2FB] (AR v1)
Track 9 accurately ripped (confidence 1) [D4210076] (AR v1)
Track 10 accurately ripped (confidence 1) [3FB3390A] (AR v1)

All tracks accurately ripped

End of status report

---- CUETools DB Plugin V2.1.3

[CTDB TOCID: TOOxYZjQL.Hv.SnPM4QAYLagEJY-] disk not present in database, Submit result: TOOxYZjQL.Hv.SnPM4QAYLagEJY- has been uploaded


==== Log checksum 893D6BE3B324FCAAEF9A6D5C3080A78C8296DDE396E87E90E5D64C501A1F2869 ====

foobar2000 1.2.6 / Dynamic Range Meter 1.1.1
log date: 2015-11-26 10:36:52

--------------------------------------------------------------------------------
Analyzed: Clifton / We Never Change
--------------------------------------------------------------------------------

DR Peak RMS Duration Track
--------------------------------------------------------------------------------
DR6 -0.08 dB -6.60 dB 3:22 01-Triple Belly o Poo
DR6 -0.08 dB -6.16 dB 4:35 02-Promisha
DR6 -0.08 dB -6.47 dB 4:07 03-Table Full of Giggles
DR5 -0.08 dB -6.40 dB 4:37 04-Walters Look of Conviction
DR6 -0.08 dB -6.57 dB 3:08 05-Sir Interruptsalot
DR6 -0.08 dB -6.93 dB 4:01 06-Your Hand Smells Like a Bad Attitude
DR6 -0.08 dB -6.82 dB 3:56 07-Feels Like Guts
DR8 -0.22 dB -10.36 dB 2:51 08-We Never Change
DR6 0.00 dB -6.71 dB 4:46 09-And Then I Touched His Freddy Krueger
DR6 -0.08 dB -6.19 dB 4:29 10-Hangin With Nature
--------------------------------------------------------------------------------

Number of tracks: 10
Official DR value: DR6

Samplerate: 44100 Hz
Channels: 2
Bits per sample: 16
Bitrate: 1052 kbps
Codec: FLAC
================================================================================

[CUETools log; Date: 26.11.2015 10:36:52; Version: 2.1.5]
[CTDB TOCID: TOOxYZjQL.Hv.SnPM4QAYLagEJY-] found.
Track | CTDB Status
1 | (1/1) Accurately ripped
2 | (1/1) Accurately ripped
3 | (1/1) Accurately ripped
4 | (1/1) Accurately ripped
5 | (1/1) Accurately ripped
6 | (1/1) Accurately ripped
7 | (1/1) Accurately ripped
8 | (1/1) Accurately ripped
9 | (1/1) Accurately ripped
10 | (1/1) Accurately ripped
[AccurateRip ID: 000eec3e-0077554d-7209580a] found.
Track [ CRC | V2 ] Status
01 [1f3d1996|4a498a80] (1+0/1) Accurately ripped
02 [04995762|387c2bf6] (1+0/1) Accurately ripped
03 [968942bd|e3dba111] (1+0/1) Accurately ripped
04 [ddccbdac|cf24be82] (1+0/1) Accurately ripped
05 [fb5c1f75|7d7ce363] (1+0/1) Accurately ripped
06 [f0f515ab|88a2a57a] (1+0/1) Accurately ripped
07 [ea0c3986|d171cfc0] (1+0/1) Accurately ripped
08 [7bf3c2fb|43a0edf0] (1+0/1) Accurately ripped
09 [d4210076|c0cb527e] (1+0/1) Accurately ripped
10 [3fb3390a|5a8dd8a3] (1+0/1) Accurately ripped

Track Peak [ CRC32 ] [W/O NULL] [ LOG ]
-- 100,0 [C0378A15] [B9AC4C8E] CRC32
01 99,1 [14724299] [3A9547EC]
02 99,1 [AEB2DD4E] [6FDC2B0F]
03 99,1 [B02C4112] [A5781C33]
04 99,1 [C7F2C52D] [7B33DAE7]
05 99,1 [561AF070] [C0C812B7]
06 99,1 [2B1522D4] [2DEB0890]
07 99,1 [4C717201] [AF501C10]
08 97,4 [9258A30D] [7E42E64E]
09 100,0 [CC7C88B7] [7FB94808]
10 99,1 [814C9FA1] [4BEB6F19]


All thanks go to Boris1



No mirrors, please!

Download: