Ektomorf - Aggressor (2015)


Ektomorf - Aggressor (2015)
EAC Rip | FLAC (Img) + Cue + Log ~ 372 Mb | MP3 CBR320 ~ 133 Mb
Scans Included (JPG, 300 dpi) | RAR 5% Recovery
Groove Metal | AFM Records/Fono Ltd. #FO1169CD

Hungarian neo thrash masters EKTOMORF are one of the most consistent forces in the heavy music scene. A band that never disappoint their fans and stand true to what they are: a powerful, unstoppable groove machine! Following their 'Retribution' album (early 2014), another successful headliner tour and numerous festival gigs, the band around charismatic frontman Zoli Farkas present the new album now. Continuing their no-nonsense philosophy, the title 'Aggressor' is not misleading at all - in fact this new piece of work definitely is the band's heaviest and most energetic to date. Special guest appearance by legendary Cannibal Corpse vocalist George 'Corpsegrinder' Fisher.
~ Amazon


| | |

***************


Track List:

01. Intro [00:46]
02. I [03:50]
03. Aggressor [02:36]
04. Holocaust [03:57]
05. Move On [03:05]
06. Evil By Nature (feat. George “Corpsegrinder” Fisher) [04:23]
07. You Can’t Get More [03:22]
08. Emotionless World [03:27]
09. Eastside [04:17]
10. Scars [03:43]
11. Damned Nation [02:40]
12. You Lost [02:57]
13. You’re Not For Me [04:51]
14. Memento [03:04]

Exact Audio Copy V1.0 beta 3 from 29. August 2011

EAC extraction logfile from 6. November 2015, 23:37

Ektomorf / Aggressor

Used drive : MATSHITABD-CMB UJ242AS Adapter: 0 ID: 1

Read mode : Secure
Utilize accurate stream : Yes
Defeat audio cache : Yes
Make use of C2 pointers : No

Read offset correction : 103
Overread into Lead-In and Lead-Out : No
Fill up missing offset samples with silence : Yes
Delete leading and trailing silent blocks : No
Null samples used in CRC calculations : Yes
Used interface : Installed external ASPI interface

Used output format : User Defined Encoder
Selected bitrate : 1024 kBit/s
Quality : High
Add ID3 tag : Yes
Command line compressor : C:Program Files (x86)Exact Audio CopyFlacflac.exe
Additional command line options : -V -8 -T "Date=%year%" -T "Genre=%genre%" %source%


TOC of the extracted CD

Track | Start | Length | Start sector | End sector
---------------------------------------------------------
1 | 0:00.00 | 0:45.13 | 0 | 3387
2 | 0:45.13 | 3:49.09 | 3388 | 20571
3 | 4:34.22 | 2:35.30 | 20572 | 32226
4 | 7:09.52 | 3:56.13 | 32227 | 49939
5 | 11:05.65 | 3:04.28 | 49940 | 63767
6 | 14:10.18 | 4:23.00 | 63768 | 83492
7 | 18:33.18 | 3:21.48 | 83493 | 98615
8 | 21:54.66 | 3:26.33 | 98616 | 114098
9 | 25:21.24 | 4:16.59 | 114099 | 133357
10 | 29:38.08 | 3:42.12 | 133358 | 150019
11 | 33:20.20 | 2:39.13 | 150020 | 161957
12 | 35:59.33 | 2:56.60 | 161958 | 175217
13 | 38:56.18 | 4:50.04 | 175218 | 196971
14 | 43:46.22 | 3:03.27 | 196972 | 210723


Range status and errors

Selected range

Filename C:EACripEktomorf - Aggressor.wav

Peak level 98.8 %
Extraction speed 4.1 X
Range quality 100.0 %
Test CRC FC2D88C0
Copy CRC FC2D88C0
Copy OK

No errors occurred


AccurateRip summary

Track 1 not present in database
Track 2 not present in database
Track 3 not present in database
Track 4 not present in database
Track 5 not present in database
Track 6 not present in database
Track 7 not present in database
Track 8 not present in database
Track 9 not present in database
Track 10 not present in database
Track 11 not present in database
Track 12 not present in database
Track 13 not present in database
Track 14 not present in database

None of the tracks are present in the AccurateRip database

End of status report

==== Log checksum BA2E68654C6F3A565AE3C9A6921C0F4FBC3920830C0753D4FFF8D9CC58730AF4 ====

foobar2000 1.2.6 / Dynamic Range Meter 1.1.1
log date: 2015-11-26 23:00:51

--------------------------------------------------------------------------------
Analyzed: Ektomorf / Aggressor
--------------------------------------------------------------------------------

DR Peak RMS Duration Track
--------------------------------------------------------------------------------
DR10 -1.90 dB -15.02 dB 0:45 01-01. Intro
DR6 -0.10 dB -6.86 dB 3:49 02-02. I
DR5 -0.10 dB -6.39 dB 2:35 03-03. Aggressor
DR6 -0.10 dB -7.75 dB 3:56 04-04. Holocaust
DR6 -0.10 dB -7.35 dB 3:04 05-05. Move On
DR6 -0.10 dB -7.67 dB 4:23 06-06. Evil By Nature (feat. George “Corpsegrinder” Fisher)
DR5 -0.10 dB -6.12 dB 3:22 07-07. You Can’t Get More
DR5 -0.10 dB -6.24 dB 3:26 08-08. Emotionless World
DR6 -0.10 dB -7.47 dB 4:17 09-09. Eastside
DR5 -0.10 dB -6.27 dB 3:42 10-10. Scars
DR5 -0.10 dB -6.36 dB 2:39 11-11. Damned Nation
DR5 -0.10 dB -5.64 dB 2:57 12-12. You Lost
DR5 -0.10 dB -6.58 dB 4:50 13-13. You’re Not For Me
DR10 -0.10 dB -13.24 dB 3:03 14-14. Memento
--------------------------------------------------------------------------------

Number of tracks: 14
Official DR value: DR6

Samplerate: 44100 Hz
Channels: 2
Bits per sample: 16
Bitrate: 998 kbps
Codec: FLAC
================================================================================

[CUETools log; Date: 26.11.2015 22:59:08; Version: 2.1.5]
[CTDB TOCID: 5erxEZnjExi3_Jj9HigasR_GllM-] found.
Track | CTDB Status
1 | (2/2) Accurately ripped
2 | (2/2) Accurately ripped
3 | (2/2) Accurately ripped
4 | (2/2) Accurately ripped
5 | (2/2) Accurately ripped
6 | (2/2) Accurately ripped
7 | (2/2) Accurately ripped
8 | (2/2) Accurately ripped
9 | (2/2) Accurately ripped
10 | (2/2) Accurately ripped
11 | (2/2) Accurately ripped
12 | (2/2) Accurately ripped
13 | (2/2) Accurately ripped
14 | (2/2) Accurately ripped
[AccurateRip ID: 0016cd51-00f98929-a40af90e] disk not present in database.

Track Peak [ CRC32 ] [W/O NULL] [ LOG ]
-- 98,8 [FC2D88C0] [F1FB82B5] CRC32
01 80,3 [FA2B4B0B] [41BC6FD3]
02 98,8 [9DC07F9E] [E3F8B42B]
03 98,8 [F96FAE7C] [EC5C1F88]
04 98,8 [CB33636E] [E0FB6261]
05 98,8 [DDFD3DB5] [F07FA601]
06 98,8 [DC8B6464] [2F0E758E]
07 98,8 [0637F459] [6ABCD601]
08 98,8 [22F9F13D] [4DCB5E4C]
09 98,8 [FB7BEC20] [0FE0069F]
10 98,8 [284C7B30] [8AA00B3A]
11 98,8 [EE4AFC00] [F5F169C3]
12 98,8 [B8A26EB0] [E161D34D]
13 98,8 [3DFD9E47] [F48A06EA]
14 98,8 [C739D4B7] [0CF83CCD]


All thanks go to HaRD



No mirrors, please!

Download: