Вход в свой аккаунт

Или войдите через соц. сети

Santa Claws And The Naughty But Nice Orchestra - Hell's Bells Of Christmas: The Holiday Tribute To AC/DC (2007)


Santa Claws And The Naughty But Nice Orchestra - Hell's Bells Of Christmas: The Holiday Tribute To AC/DC (2007)
EAC Rip | FLAC (Img) + Cue + Log ~ 233 Mb | MP3 CBR320 ~ 77 Mb
Scans (JPG, 600 dpi) ~ 42 Mb | RAR 5% Recovery
Pop, Easy Listening, Christmas | Christmas Rock Records #CD 9514

“ AC/DC hits turned into Christmas rock by Santa Claws And The Naughty But Nice Orchestra -- instrumentals (jazz/classical/elevator style) with sleigh bells added.

Sleigh bells ring and hell's bells toll on this incredible holiday tribute to one of music's most iconic acts. Nothing can quench AC/DC's thirst for cheap thrills, dirty deeds and sweet, sweet candy. Santa may have crossed these naughty boys off his list a long time ago, but that doesn't mean you can't score the world's biggest Christmas ball with this little noel. You will definitely score with these hard rock candy holiday versions of AC/DC's greatest songs.
”


***************


Track List:

01. Highway To Hell [02:48]
02. Whole Lotta Rosie [03:41]
03. You Shook Me All Night Long [03:12]
04. Back In Black [03:22]
05. Money Talks [03:54]
06. Hell's Bells [03:07]
07. Dirty Deeds Done Dirt Cheap [03:24]
08. Thunderstruck [03:34]
09. Big Balls [02:20]
10. Mistress For Christmas [02:31]

Exact Audio Copy V1.0 beta 3 from 29. August 2011

EAC extraction logfile from 21. November 2015, 15:25

Santa Claws and The Naughty But Nice Orchestra / The Holiday Tribute To AC/DC

Used drive : PIONEER BD-RW BDR-TD03 Adapter: 0 ID: 1

Read mode : Secure
Utilize accurate stream : Yes
Defeat audio cache : Yes
Make use of C2 pointers : No

Read offset correction : 667
Overread into Lead-In and Lead-Out : No
Fill up missing offset samples with silence : Yes
Delete leading and trailing silent blocks : No
Null samples used in CRC calculations : Yes
Used interface : Native Win32 interface for Win NT & 2000

Used output format : User Defined Encoder
Selected bitrate : 768 kBit/s
Quality : High
Add ID3 tag : No
Command line compressor : C:Program Files (x86)Exact Audio CopyFLACFLAC.EXE
Additional command line options : -6 -V -T "ARTIST=%artist%" -T "TITLE=%title%" -T "ALBUM=%albumtitle%" -T "DATE=%year%" -T "TRACKNUMBER=%tracknr%" -T "GENRE=%genre%" -T "COMMENT=%comment%" -T "BAND=%albuminterpret%" -T "ALBUMARTIST=%albuminterpret%" -T "COMPOSER=%composer%" %haslyrics%--tag-from-file=LYRICS="%lyricsfile%"%haslyrics% -T "DISCNUMBER=%cdnumber%" -T "TOTALDISCS=%totalcds%" -T "TOTALTRACKS=%numtracks%" %hascover%--picture="%coverfile%"%hascover% %source% -o %dest%


TOC of the extracted CD

Track | Start | Length | Start sector | End sector
---------------------------------------------------------
1 | 0:00.00 | 2:47.03 | 0 | 12527
2 | 2:47.03 | 3:40.60 | 12528 | 29087
3 | 6:27.63 | 3:11.42 | 29088 | 43454
4 | 9:39.30 | 3:21.54 | 43455 | 58583
5 | 13:01.09 | 3:53.66 | 58584 | 76124
6 | 16:55.00 | 3:06.14 | 76125 | 90088
7 | 20:01.14 | 3:23.05 | 90089 | 105318
8 | 23:24.19 | 3:33.57 | 105319 | 121350
9 | 26:58.01 | 2:19.72 | 121351 | 131847
10 | 29:17.73 | 2:30.22 | 131848 | 143119


Range status and errors

Selected range

Filename C:UsersDerisDesktop...chrisacdcSanta Claws and The Naughty But Nice Orchestra - The Holiday Tribute To AC,DC.wav

Peak level 100.0 %
Extraction speed 4.1 X
Range quality 100.0 %
Test CRC BA3A6A53
Copy CRC BA3A6A53
Copy OK

No errors occurred


AccurateRip summary

Track 1 accurately ripped (confidence 2) [D26D0611] (AR v1)
Track 2 accurately ripped (confidence 2) [51CE3528] (AR v1)
Track 3 accurately ripped (confidence 2) [AAAF360C] (AR v1)
Track 4 accurately ripped (confidence 2) [6F0CFA88] (AR v1)
Track 5 accurately ripped (confidence 2) [AF1F9BF2] (AR v1)
Track 6 accurately ripped (confidence 2) [132725E1] (AR v1)
Track 7 accurately ripped (confidence 2) [F942CB4C] (AR v1)
Track 8 accurately ripped (confidence 2) [23B674DC] (AR v1)
Track 9 accurately ripped (confidence 2) [C37D0BDD] (AR v1)
Track 10 accurately ripped (confidence 2) [9BCE91FD] (AR v1)

All tracks accurately ripped

End of status report

---- CUETools DB Plugin V2.1.3

[CTDB TOCID: .HoqjgI3Tc3ER1Jz2biOoVy.rIM-] found, Submit result: .HoqjgI3Tc3ER1Jz2biOoVy.rIM- has been confirmed
[8d26657e] (1/1) Accurately ripped


==== Log checksum FE5C22ED6FC3EC406BCF171F8176E7B0815F16A487F5965F23C19FA9F27AFDB7 ====

foobar2000 1.2.6 / Dynamic Range Meter 1.1.1
log date: 2015-11-29 23:53:12

--------------------------------------------------------------------------------
Analyzed: Santa Claws and The Naughty But Nice Orchestra / The Holiday Tribute To AC/DC
--------------------------------------------------------------------------------

DR Peak RMS Duration Track
--------------------------------------------------------------------------------
DR10 0.00 dB -11.83 dB 2:47 01-Highway To Hell
DR12 0.00 dB -13.65 dB 3:41 02-Whole Lotta Rosie
DR11 0.00 dB -12.97 dB 3:12 03-You Shook Me All Night Long
DR11 0.00 dB -13.78 dB 3:22 04-Back In Black
DR11 0.00 dB -12.91 dB 3:54 05-Money Talks
DR11 0.00 dB -13.95 dB 3:06 06-Hell's Bells
DR11 0.00 dB -13.45 dB 3:23 07-Dirty Deeds Done Dirt Cheap
DR9 0.00 dB -11.91 dB 3:34 08-Thunderstruck
DR12 0.00 dB -14.36 dB 2:20 09-Big Balls
DR12 0.00 dB -14.14 dB 2:30 10-Mistress For Christmas
--------------------------------------------------------------------------------

Number of tracks: 10
Official DR value: DR11

Samplerate: 44100 Hz
Channels: 2
Bits per sample: 16
Bitrate: 975 kbps
Codec: FLAC
================================================================================

[CUETools log; Date: 29.11.2015 0:24:35; Version: 2.1.5]
[CTDB TOCID: .HoqjgI3Tc3ER1Jz2biOoVy.rIM-] found.
Track | CTDB Status
1 | (2/2) Accurately ripped
2 | (2/2) Accurately ripped
3 | (2/2) Accurately ripped
4 | (2/2) Accurately ripped
5 | (2/2) Accurately ripped
6 | (2/2) Accurately ripped
7 | (2/2) Accurately ripped
8 | (2/2) Accurately ripped
9 | (2/2) Accurately ripped
10 | (2/2) Accurately ripped
[AccurateRip ID: 000c61f3-006316f9-7f07740a] found.
Track [ CRC | V2 ] Status
01 [d26d0611|faa23fb6] (2+0/2) Accurately ripped
02 [51ce3528|8d2d2afb] (2+0/2) Accurately ripped
03 [aaaf360c|93152e75] (2+0/2) Accurately ripped
04 [6f0cfa88|c47b197b] (2+0/2) Accurately ripped
05 [af1f9bf2|d975b62e] (2+0/2) Accurately ripped
06 [132725e1|aabfdfc2] (2+0/2) Accurately ripped
07 [f942cb4c|c5ae25ab] (2+0/2) Accurately ripped
08 [23b674dc|0e8e6fe6] (2+0/2) Accurately ripped
09 [c37d0bdd|1dafa2f9] (2+0/2) Accurately ripped
10 [9bce91fd|b9d29174] (2+0/2) Accurately ripped

Track Peak [ CRC32 ] [W/O NULL] [ LOG ]
-- 100,0 [BA3A6A53] [870D7529] CRC32
01 100,0 [271AAA43] [1A9A64B7]
02 100,0 [51763828] [7D0B31C7]
03 100,0 [B67AC137] [DA325434]
04 100,0 [3B2B6B55] [AA64D57E]
05 100,0 [A8173223] [D9C4E03A]
06 100,0 [F839A2A7] [AB7C3C4B]
07 100,0 [A494D78E] [3763AC1B]
08 100,0 [CE4E14D5] [48E8BF45]
09 100,0 [02A86BFA] [946E9047]
10 100,0 [325A8FD8] [8860C451]



See also:



All thanks go to Boris1



No mirrors, please!

Download: