Вход в свой аккаунт

Или войдите через соц. сети

Chick Webb - Strictly Jive (1999)


Chick Webb - Strictly Jive (1999)
EAC | FLAC | Tracks (Cue&Log) ~ 269 Mb (incl 5%) | Mp3 (CBR320) ~ 188 Mb (incl 5%) | Scans included
Genre: Jazz, Big Band, Swing | Label: HEP Records | # HEP CD 1063 mono | Time: 01:15:15

“ Strictly Jive is the Hep label's 25-track salute to Chick Webb, a formidable percussionist who led one of the toughest big bands of the 1930s. Strictly Jive concentrates upon the years 1935-1940, a period of time that represents the second half of the ten-year Webb dynasty. The Chick Webb orchestra was a jazz incubator from which emerged seasoned instrumentalists like Taft Jordan, Sandy Williams, Garvin Bushell, Hilton Jefferson, and Eddie Barefield, as well as future bandleaders John Kirby and Louis Jordan, and renowned composer and arranger Edgar Sampson. Saxophonist Wayman Carver, one of the few flutists in jazz during the 1930s, was a featured soloist with Chick Webb and may be heard piping away in front of the band on Wilbur Sweatman's "Down Home Rag." Most people who have heard of Webb associate him with his star vocalist Ella Fitzgerald, a dynamic woman who assumed leadership of the band after 30-year-old Chick Webb succumbed to spinal tuberculosis on June 16, 1939 in his hometown of Baltimore, Maryland.

Review by arwulf arwulf, Allmusic.com
”






Tracklist:

01. Down Home Rag (02:53)
02. Facts and Figures (02:32)
03. Go Harlem (02:20)
04. Sing Me a Swing Song (02:33)
05. Gee, But You're Swell (02:36)
06. Rusty Hinge (03:05)
07. Clap Hands, Here Comes Charlie (02:29)
08. That Naughty Waltz (02:59)
09. Strictly Jive (03:16)
10. Squeeze Me (03:06)
11. If Dreams Come True (02:34)
12. Harlem Congo (03:11)
13. I Want to Be Happy (04:18)
14. Midnite in a Madhouse (02:29)
15. Azure (03:06)
16. Spinnin' the Webb (03:00)
17. Liza (02:44)
18. Macpherson Is Rehearsin' (To Swing) (03:05)
19. Ella (02:45)
20. Who Ya Hunchin' (02:49)
21. 'Tain't What You Do (02:58)
22. In the Groove at the Grove (02:38)
23. Lindyhopper's Delight (02:45)
24. Take It from the Top (02:52)
25. Jubilee Swing (03:12)
26. Untitled (02:50)


Exact Audio Copy V0.99 prebeta 4 from 23. January 2008

EAC extraction logfile from 8. May 2010, 22:47

Chick Webb / Strictly Jive

Used drive : TSSTcorpCD/DVDW TS-H552L Adapter: 5 ID: 0

Read mode : Secure
Utilize accurate stream : Yes
Defeat audio cache : Yes
Make use of C2 pointers : No

Read offset correction : 6
Overread into Lead-In and Lead-Out : No
Fill up missing offset samples with silence : Yes
Delete leading and trailing silent blocks : No
Null samples used in CRC calculations : Yes
Used interface : Native Win32 interface for Win NT & 2000
Gap handling : Appended to previous track

Used output format : User Defined Encoder
Selected bitrate : 128 kBit/s
Quality : High
Add ID3 tag : No
Command line compressor : C:Program FilesExact Audio CopyFlacflac.exe
Additional command line options : -8 -V -T "ARTIST=%a" -T "TITLE=%t" -T "ALBUM=%g" -T "DATE=%y" -T "TRACKNUMBER=%n" -T "GENRE=%m" -T "COMMENT=EAC FLAC -8" %s


TOC of the extracted CD

Track | Start | Length | Start sector | End sector
---------------------------------------------------------
1 | 0:00.00 | 2:53.05 | 0 | 12979
2 | 2:53.05 | 2:32.29 | 12980 | 24408
3 | 5:25.34 | 2:20.70 | 24409 | 34978
4 | 7:46.29 | 2:33.64 | 34979 | 46517
5 | 10:20.18 | 2:36.43 | 46518 | 58260
6 | 12:56.61 | 3:05.13 | 58261 | 72148
7 | 16:01.74 | 2:29.17 | 72149 | 83340
8 | 18:31.16 | 2:59.03 | 83341 | 96768
9 | 21:30.19 | 3:16.01 | 96769 | 111469
10 | 24:46.20 | 3:06.53 | 111470 | 125472
11 | 27:52.73 | 2:34.60 | 125473 | 137082
12 | 30:27.58 | 3:11.17 | 137083 | 151424
13 | 33:39.00 | 4:18.35 | 151425 | 170809
14 | 37:57.35 | 2:29.39 | 170810 | 182023
15 | 40:26.74 | 3:06.12 | 182024 | 195985
16 | 43:33.11 | 3:00.28 | 195986 | 209513
17 | 46:33.39 | 2:44.11 | 209514 | 221824
18 | 49:17.50 | 3:05.31 | 221825 | 235730
19 | 52:23.06 | 2:45.00 | 235731 | 248105
20 | 55:08.06 | 2:49.66 | 248106 | 260846
21 | 57:57.72 | 2:58.00 | 260847 | 274196
22 | 60:55.72 | 2:38.34 | 274197 | 286080
23 | 63:34.31 | 2:45.19 | 286081 | 298474
24 | 66:19.50 | 2:52.36 | 298475 | 311410
25 | 69:12.11 | 3:12.18 | 311411 | 325828
26 | 72:24.29 | 2:50.49 | 325829 | 338627


Track 1

Filename C:RIP1 - Down Home Rag.wav

Pre-gap length 0:00:02.00

Peak level 100.0 %
Track quality 100.0 %
Test CRC 1C2DA860
Copy CRC 1C2DA860
Accurately ripped (confidence 1) [C3B57FFC]
Copy OK

Track 2

Filename C:RIP2 - Facts And Figures.wav

Pre-gap length 0:00:02.88

Peak level 69.8 %
Track quality 100.0 %
Test CRC 483C52B0
Copy CRC 483C52B0
Accurately ripped (confidence 1) [0CD6C596]
Copy OK

Track 3

Filename C:RIP3 - Go Harlem.wav

Pre-gap length 0:00:02.93

Peak level 60.3 %
Track quality 100.0 %
Test CRC C5979AAF
Copy CRC C5979AAF
Accurately ripped (confidence 1) [F32350CA]
Copy OK

Track 4

Filename C:RIP4 - Sing Me A Swing Song.wav

Pre-gap length 0:00:02.86

Peak level 54.8 %
Track quality 100.0 %
Test CRC D8262E5F
Copy CRC D8262E5F
Accurately ripped (confidence 1) [D6D89949]
Copy OK

Track 5

Filename C:RIP5 - Gee, But You're Swell.wav

Pre-gap length 0:00:02.88

Peak level 82.6 %
Track quality 100.0 %
Test CRC 3E627D13
Copy CRC 3E627D13
Accurately ripped (confidence 1) [476068E9]
Copy OK

Track 6

Filename C:RIP6 - Rusty Hinge.wav

Pre-gap length 0:00:02.90

Peak level 71.2 %
Track quality 100.0 %
Test CRC 7E7A3639
Copy CRC 7E7A3639
Accurately ripped (confidence 1) [9E9A5FED]
Copy OK

Track 7

Filename C:RIP7 - Clap Hands, Here Comes Charlie.wav

Pre-gap length 0:00:02.90

Peak level 86.5 %
Track quality 100.0 %
Test CRC CCDFD22A
Copy CRC CCDFD22A
Accurately ripped (confidence 1) [EA63AD7C]
Copy OK

Track 8

Filename C:RIP8 - That Naughty Waltz.wav

Pre-gap length 0:00:02.92

Peak level 79.0 %
Track quality 100.0 %
Test CRC 1761ED33
Copy CRC 1761ED33
Accurately ripped (confidence 1) [DF590CC2]
Copy OK

Track 9

Filename C:RIP9 - Strictly Jive.wav

Pre-gap length 0:00:02.96

Peak level 68.7 %
Track quality 100.0 %
Test CRC ABA20660
Copy CRC ABA20660
Accurately ripped (confidence 1) [FEA799FD]
Copy OK

Track 10

Filename C:RIP10 - Squeeze Me.wav

Pre-gap length 0:00:02.96

Peak level 59.0 %
Track quality 100.0 %
Test CRC 7F4DD28C
Copy CRC 7F4DD28C
Accurately ripped (confidence 1) [2CC9C9C9]
Copy OK

Track 11

Filename C:RIP11 - If Dreams Come True.wav

Pre-gap length 0:00:02.80

Peak level 63.4 %
Track quality 100.0 %
Test CRC 1A9A5E69
Copy CRC 1A9A5E69
Accurately ripped (confidence 1) [465399E8]
Copy OK

Track 12

Filename C:RIP12 - Harlem Congo.wav

Pre-gap length 0:00:02.86

Peak level 81.9 %
Track quality 100.0 %
Test CRC F22867AD
Copy CRC F22867AD
Accurately ripped (confidence 1) [16E818C6]
Copy OK

Track 13

Filename C:RIP13 - I Want To Be Happy.wav

Pre-gap length 0:00:02.81

Peak level 85.9 %
Track quality 100.0 %
Test CRC 5FBDE9C4
Copy CRC 5FBDE9C4
Accurately ripped (confidence 1) [A908D477]
Copy OK

Track 14

Filename C:RIP14 - Midnite In A Madhouse.wav

Pre-gap length 0:00:02.97

Peak level 78.4 %
Track quality 100.0 %
Test CRC 01E88760
Copy CRC 01E88760
Accurately ripped (confidence 1) [C808BE59]
Copy OK

Track 15

Filename C:RIP15 - Azure.wav

Pre-gap length 0:00:02.90

Peak level 82.4 %
Track quality 100.0 %
Test CRC 2AE74728
Copy CRC 2AE74728
Accurately ripped (confidence 1) [50D0C988]
Copy OK

Track 16

Filename C:RIP16 - Spinnin' The Web.wav

Pre-gap length 0:00:02.97

Peak level 76.2 %
Track quality 100.0 %
Test CRC 370F699A
Copy CRC 370F699A
Accurately ripped (confidence 1) [F166B13E]
Copy OK

Track 17

Filename C:RIP17 - Liza.wav

Pre-gap length 0:00:03.00

Peak level 98.3 %
Track quality 100.0 %
Test CRC 9119FBB7
Copy CRC 9119FBB7
Accurately ripped (confidence 1) [D3687BE8]
Copy OK

Track 18

Filename C:RIP18 - Macpherson Is Rehearsin'.wav

Pre-gap length 0:00:02.86

Peak level 100.0 %
Track quality 100.0 %
Test CRC 70D46E2A
Copy CRC 70D46E2A
Accurately ripped (confidence 1) [5B66484B]
Copy OK

Track 19

Filename C:RIP19 - Ella.wav

Pre-gap length 0:00:02.77

Peak level 96.9 %
Track quality 100.0 %
Test CRC C3E838AC
Copy CRC C3E838AC
Accurately ripped (confidence 1) [A09FC4FC]
Copy OK

Track 20

Filename C:RIP20 - Who Ya Hunchin'.wav

Pre-gap length 0:00:02.85

Peak level 61.9 %
Track quality 100.0 %
Test CRC 8A519568
Copy CRC 8A519568
Accurately ripped (confidence 1) [16DECCCC]
Copy OK

Track 21

Filename C:RIP21 - 'Tain't What You Do.wav

Pre-gap length 0:00:02.89

Peak level 89.2 %
Track quality 99.9 %
Test CRC D004D53F
Copy CRC D004D53F
Accurately ripped (confidence 1) [B05F9B78]
Copy OK

Track 22

Filename C:RIP22 - In The Groove At The Grove.wav

Pre-gap length 0:00:02.72

Peak level 70.6 %
Track quality 100.0 %
Test CRC 637ACF01
Copy CRC 637ACF01
Accurately ripped (confidence 1) [69459E95]
Copy OK

Track 23

Filename C:RIP23 - Lindyhopper's Delight.wav

Pre-gap length 0:00:02.89

Peak level 62.5 %
Track quality 100.0 %
Test CRC 9547F00D
Copy CRC 9547F00D
Accurately ripped (confidence 1) [537E0101]
Copy OK

Track 24

Filename C:RIP24 - Take It From The Top.wav

Pre-gap length 0:00:02.80

Peak level 58.6 %
Track quality 100.0 %
Test CRC C03F47C4
Copy CRC C03F47C4
Accurately ripped (confidence 1) [E539B1AF]
Copy OK

Track 25

Filename C:RIP25 - Jubilee Swing.wav

Pre-gap length 0:00:02.96

Peak level 62.7 %
Track quality 99.9 %
Test CRC F03B289E
Copy CRC F03B289E
Accurately ripped (confidence 1) [BFE3A5C6]
Copy OK

Track 26

Filename C:RIP26 - Untitled.wav

Pre-gap length 0:00:03.00

Peak level 61.5 %
Track quality 100.0 %
Test CRC F7339461
Copy CRC F7339461
Accurately ripped (confidence 1) [9F650BB3]
Copy OK


All tracks accurately ripped

No errors occurred

End of status report

foobar2000 1.3.8 / Dynamic Range Meter 1.1.1
log date: 2015-12-03 16:07:27

--------------------------------------------------------------------------------
Analyzed: Chick Webb / Strictly Jive
--------------------------------------------------------------------------------

DR Peak RMS Duration Track
--------------------------------------------------------------------------------
DR13 0.00 dB -16.34 dB 2:53 01-Down Home Rag
DR12 -3.12 dB -17.51 dB 2:32 02-Facts and Figures
DR12 -4.38 dB -18.59 dB 2:21 03-Go Harlem
DR12 -5.22 dB -19.78 dB 2:34 04-Sing Me a Swing Song
DR12 -1.65 dB -16.67 dB 2:37 05-Gee, But You're Swell
DR13 -2.95 dB -17.21 dB 3:05 06-Rusty Hinge
DR13 -1.26 dB -17.60 dB 2:29 07-Clap Hands, Here Comes Charlie
DR13 -2.04 dB -17.28 dB 2:59 08-That Naughty Waltz
DR13 -3.25 dB -18.41 dB 3:16 09-Strictly Jive
DR13 -4.58 dB -20.61 dB 3:07 10-Squeeze Me
DR13 -3.95 dB -19.33 dB 2:35 11-If Dreams Come True
DR12 -1.73 dB -15.75 dB 3:11 12-Harlem Congo
DR14 -1.32 dB -17.22 dB 4:18 13-I Want to Be Happy
DR12 -2.11 dB -16.73 dB 2:30 14-Midnite in a Madhouse
DR12 -1.67 dB -17.83 dB 3:06 15-Azure
DR12 -2.36 dB -16.73 dB 3:00 16-Spinnin' the Webb
DR14 -0.15 dB -17.42 dB 2:44 17-Liza
DR13 0.00 dB -15.98 dB 3:05 18-Macpherson Is Rehearsin' (To Swing)
DR14 -0.27 dB -16.07 dB 2:45 19-Ella
DR11 -4.16 dB -17.22 dB 2:50 20-Who Ya Hunchin'
DR13 -0.98 dB -19.40 dB 2:58 21-'Tain't What You Do
DR12 -3.02 dB -17.66 dB 2:38 22-In the Groove at the Grove
DR11 -4.08 dB -17.08 dB 2:45 23-Lindyhopper's Delight
DR13 -4.63 dB -20.54 dB 2:52 24-Take It from the Top
DR13 -4.05 dB -18.93 dB 3:12 25-Jubilee Swing
DR12 -4.21 dB -18.71 dB 2:51 26-Untitled
--------------------------------------------------------------------------------

Number of tracks: 26
Official DR value: DR13

Samplerate: 44100 Hz
Channels: 2
Bits per sample: 16
Bitrate: 451 kbps
Codec: FLAC
================================================================================



All thanks to original releaser - mx204