Вход в свой аккаунт

Или войдите через соц. сети

Neil Young - Dead Man (1996) [Original Motion Picture Soundtrack]


Neil Young - Dead Man (1996)
EAC Rip | FLAC (Img) + Cue + Log ~ 358 Mb | MP3 CBR320 ~ 150 Mb
Scans (JPG, 600 dpi) ~ 236 Mb | RAR 5% Recovery
Soundtrack, Psychedelic Rock, Dialogue | Vapor Records #9 46171-2

“ Even within the unpredictable Neil Young discography, this qualifies as one of his most unpredictable efforts. This soundtrack to the Jim Jarmusch film Dead Man is entirely instrumental, with the exception of some poetry read by Johnny Depp (who stars in the film) and a bit of dialogue. What's more, these untitled instrumental passages are dominated by subterranean guitar rumbles that manage to sound both grungy and subdued. Young also takes care to vary his approach a bit, switching occaionally to pump organ, detuned piano, and acoustic guitar. The results not only evoke the hostile, desolate landscapes of the film's Old West, but work on their own terms as ambient mood music for the non-new age crowd, creating an atmosphere of restless disturbance with subtlety and grace. It's not necessarily for the typical Neil Young fan (whoever that might be), but it's certainly one of his most successful experimental efforts.
~ Richie Unterberger, All Music
”

| | |

***************


Track List:

01. Guitar Solo, No. 1 [0:05:17.53]
02. The Round Stones beneath the Earth... [0:03:31.57]
03. Guitar Solo, No. 2 [0:02:03.03]
04. Why Does Thou Hide Thyself, Clouds... [0:02:24.42]
05. Organ Solo [0:01:33.13]
06. Do You Know How to Use This Weapon? [0:04:24.47]
07. Guitar Solo, No. 3 [0:04:31.20]
08. Nobody's Story [0:06:35.58]
09. Guitar Solo, No. 4 [0:04:22.12]
10. Stupid White Men... [0:08:45.53]
11. Guitar Solo, No. 5 [0:14:40.47]
12. Time for You to Leave, William Blake... [0:00:51.35]
13. Guitar Solo, No. 6 [0:03:22.05]

Exact Audio Copy V1.0 beta 3 from 29. August 2011

EAC extraction logfile from 10. April 2014, 21:18

Neil Young / Dead Man

Used drive : PLEXTOR DVDR PX-L890SA Adapter: 1 ID: 0

Read mode : Secure
Utilize accurate stream : Yes
Defeat audio cache : Yes
Make use of C2 pointers : No

Read offset correction : 6
Overread into Lead-In and Lead-Out : No
Fill up missing offset samples with silence : Yes
Delete leading and trailing silent blocks : No
Null samples used in CRC calculations : Yes
Used interface : Native Win32 interface for Win NT & 2000

Used output format : User Defined Encoder
Selected bitrate : 768 kBit/s
Quality : High
Add ID3 tag : No
Command line compressor : G:Program FilesExact Audio CopyFLACFLAC.EXE
Additional command line options : -V -8 -T "Date=%year%" -T "Genre=%genre%" %source%


TOC of the extracted CD

Track | Start | Length | Start sector | End sector
---------------------------------------------------------
1 | 0:00.32 | 5:17.53 | 32 | 23859
2 | 5:18.10 | 3:31.57 | 23860 | 39741
3 | 8:49.67 | 2:03.03 | 39742 | 48969
4 | 10:52.70 | 2:24.42 | 48970 | 59811
5 | 13:17.37 | 1:33.13 | 59812 | 66799
6 | 14:50.50 | 4:24.47 | 66800 | 86646
7 | 19:15.22 | 4:31.20 | 86647 | 106991
8 | 23:46.42 | 6:35.58 | 106992 | 136674
9 | 30:22.25 | 4:22.12 | 136675 | 156336
10 | 34:44.37 | 8:45.53 | 156337 | 195764
11 | 43:30.15 | 14:40.47 | 195765 | 261811
12 | 58:10.62 | 0:51.35 | 261812 | 265671
13 | 59:02.22 | 3:22.05 | 265672 | 280826


Range status and errors

Selected range

Filename H:MUSICNeil Young1996. Neil Young - Dead Man (Vapor 9 46171-2, USA)Neil Young - Dead Man.wav

Peak level 97.6 %
Extraction speed 5.1 X
Range quality 99.9 %
Test CRC 3D13DC7E
Copy CRC 3D13DC7E
Copy OK

No errors occurred


AccurateRip summary

Track 1 accurately ripped (confidence 5) [060ED2CF] (AR v2)
Track 2 accurately ripped (confidence 5) [F4EF17D8] (AR v2)
Track 3 accurately ripped (confidence 5) [EA329272] (AR v2)
Track 4 accurately ripped (confidence 5) [A3FD17C1] (AR v2)
Track 5 accurately ripped (confidence 5) [75485B8E] (AR v2)
Track 6 accurately ripped (confidence 5) [891C8962] (AR v2)
Track 7 accurately ripped (confidence 5) [BF4C0CCE] (AR v2)
Track 8 accurately ripped (confidence 5) [C6473A50] (AR v2)
Track 9 accurately ripped (confidence 5) [0D248CA7] (AR v2)
Track 10 accurately ripped (confidence 5) [682EF1ED] (AR v2)
Track 11 accurately ripped (confidence 5) [32D112C0] (AR v2)
Track 12 accurately ripped (confidence 5) [EFB096E3] (AR v2)
Track 13 accurately ripped (confidence 5) [A9FC2D86] (AR v2)

All tracks accurately ripped

End of status report

==== Log checksum CA460B86FFA81C11536AF09C8CA9C5E1CCD9FFEFDE289F825CC1A094F2D27535 ====

foobar2000 1.2.6 / Dynamic Range Meter 1.1.1
log date: 2015-12-05 00:47:47

--------------------------------------------------------------------------------
Analyzed: Neil Young / Dead Man
--------------------------------------------------------------------------------

DR Peak RMS Duration Track
--------------------------------------------------------------------------------
DR11 -1.07 dB -18.30 dB 5:18 01-Guitar Solo, No. 1
DR10 -0.21 dB -13.88 dB 3:32 02-The Round Stones beneath the Earth...
DR9 -0.91 dB -12.94 dB 2:03 03-Guitar Solo, No. 2
DR11 -0.75 dB -16.53 dB 2:25 04-Why Does Thou Hide Thyself, Clouds...
DR9 -1.06 dB -12.82 dB 1:33 05-Organ Solo
DR12 -0.36 dB -16.89 dB 4:25 06-Do You Know How to Use This Weapon?
DR10 -0.54 dB -14.19 dB 4:31 07-Guitar Solo, No. 3
DR13 -0.21 dB -18.37 dB 6:36 08-Nobody's Story
DR10 -0.32 dB -14.04 dB 4:22 09-Guitar Solo, No. 4
DR16 -0.21 dB -20.23 dB 8:46 10-Stupid White Men...
DR7 -0.21 dB -9.96 dB 14:41 11-Guitar Solo, No. 5
DR12 -7.46 dB -24.75 dB 0:51 12-Time for You to Leave, William Blake...
DR10 -4.57 dB -21.05 dB 3:22 13-Guitar Solo, No. 6
--------------------------------------------------------------------------------

Number of tracks: 13
Official DR value: DR11

Samplerate: 44100 Hz
Channels: 2
Bits per sample: 16
Bitrate: 764 kbps
Codec: FLAC
================================================================================

[CUETools log; Date: 05.12.2015 0:47:53; Version: 2.1.5]
Pregap length 00:00:32.
HDCD: peak extend: yes, transient filter: none, gain: -4,0dB..0,0dB
[CTDB TOCID: evHqh.sm3y4HGEke5vVhEszvwbg-] found.
Track | CTDB Status
1 | (13/13) Accurately ripped
2 | (13/13) Accurately ripped
3 | (13/13) Accurately ripped
4 | (13/13) Accurately ripped
5 | (13/13) Accurately ripped
6 | (13/13) Accurately ripped
7 | (13/13) Accurately ripped
8 | (13/13) Accurately ripped
9 | (13/13) Accurately ripped
10 | (13/13) Accurately ripped
11 | (13/13) Accurately ripped
12 | (13/13) Accurately ripped
13 | (13/13) Accurately ripped
[AccurateRip ID: 001a6597-0112a4fd-b40ea00d] found.
Track [ CRC | V2 ] Status
01 [981aa3b6|060ed2cf] (12+11/91) Accurately ripped
02 [4f836918|f4ef17d8] (12+11/92) Accurately ripped
03 [40189541|ea329272] (12+11/92) Accurately ripped
04 [b5c3283b|a3fd17c1] (12+11/92) Accurately ripped
05 [02da3a96|75485b8e] (12+11/92) Accurately ripped
06 [4f1a941b|891c8962] (12+11/91) Accurately ripped
07 [83896c93|bf4c0cce] (12+11/91) Accurately ripped
08 [72b4530d|c6473a50] (12+11/92) Accurately ripped
09 [1183cd7f|0d248ca7] (12+11/92) Accurately ripped
10 [b049ddbf|682ef1ed] (11+11/91) Accurately ripped
11 [cd94be16|32d112c0] (12+11/91) Accurately ripped
12 [8780b923|efb096e3] (12+11/90) Accurately ripped
13 [f916f2e2|a9fc2d86] (11+11/88) Accurately ripped
Offsetted by 1615:
01 [bf6d1f27] (37/91) Accurately ripped
02 [7dc4d40e] (37/92) Accurately ripped
03 [20ca2936] (37/92) Accurately ripped
04 [6b805357] (37/92) Accurately ripped
05 [c51b6486] (37/92) Accurately ripped
06 [2b29efaa] (36/91) Accurately ripped
07 [1f77f1ed] (36/91) Accurately ripped
08 [5af39e47] (37/92) Accurately ripped
09 [4fe2c481] (37/92) Accurately ripped
10 [098ebd7b] (37/91) Accurately ripped
11 [08a766d4] (37/91) Accurately ripped
12 [6dd7af3a] (37/90) Accurately ripped
13 [10a51342] (36/88) Accurately ripped

Track Peak [ CRC32 ] [W/O NULL] [ LOG ]
-- 97,6 [3D13DC7E] [34B0CCA7] CRC32
01 88,3 [1DB2DB56] [28D992CA]
02 97,6 [84869492] [3FBBF263]
03 90,0 [9E39F8A2] [605D54F8]
04 91,7 [E27315FE] [12A54E2B]
05 88,4 [2B6C5F0F] [C0A0D9A4]
06 95,9 [70D4BCBC] [27681CE6]
07 93,9 [344FC352] [23BCA209]
08 97,5 [50469A3C] [A005954A]
09 96,3 [5C31A9B0] [46CFA6A3]
10 97,6 [CAB6F2BD] [A7DB0081]
11 97,6 [757A1C6A] [0F967ADF]
12 42,3 [7EF26275] [D6427D31]
13 59,1 [E7A214D1] [E814AED0]



See also:


All thanks go to snakesharmer



No mirrors, please!

Download: