Вход в свой аккаунт

Или войдите через соц. сети

VA - Ministry Of Sound: Anthems Electronic 80s (2009) 3CD Set


VA - Ministry Of Sound: Anthems Electronic 80s (2009) 3CD Set
EAC | FLAC | Tracks (Cue&Log) ~ 1.67 Gb (incl 5%) | Mp3 (CBR320) ~ 567 Mb (incl 5%) | Scans ~ 54 Mb
Genre: Synthpop, Electronic, New Wave, Post-Punk, Dance Rock | Label: Ministry Of Sound | # MOSCD201 | Time: 03:54:57

“ UK three CD collection. This release charts the birth of synthesized pop music in the 1980s and ultimately the roots of contemporary electronic dance music. The importance and continued popularity of '80s pop is not to be underestimated, and the emergence of serious synthesized music producers in Kraftwerk, the Human League, Heaven 17, OMD, Yazoo, Ultravox, Talk Talk, Japan, Devo, Sparks, Gary Numan, New Order and the Pet Shop Boys, all of whom massively pushed the boundaries in experimenting with (mainly) Roland synths in this era, ultimately showed the way for the House and Techno producers of the '90s to the present day. Within this more serious side there was also some brilliant, pure Synthpop from the Thompson Twins, Duran Duran, Spandau Ballet, Thomas Dolby, Simple Minds, Propaganda, Erasure, China Crisis, Belouis Some, the Lotus Eaters, a Flock of Seagulls, Howard Jones, Blancmange and the Associates. ”


“ The Ministry of Sound label's Anthems: Electronic '80s collects 60 U.K.-centric new wave/electro-pop nuggets over the span of three discs. Compilations of this sort (generic title, budget artwork) rarely deliver on such a grand scale, but Anthems’ compilers have shown their love for the genre by cherry-picking the cream of the crop from the era. Ultravox, Tubeway Army, Sigue Sigue Sputnik, Joy Division, Paul Hardcastle, Giorgio Moroder, A Flock of Seagulls, and Blondie may have shared airtime on underground radio, but their appearance on anything other than a 90-minute mixtape handcrafted in the bedroom of an angst-filled, wavy-haired teen is a joy to behold.

Review by James Christopher Monger, Allmusic.com
”


Tracklist:

CD1:

01 Ultravox - Vienna (4:38)
02 Gary Numan - Cars (3:34)
03 Soft Cell - Tainted Love - Where Did Our Love Go? (12'' Mix) (9:05)
04 Visage - Fade To Grey (3:24)
05 Yazoo - Don't Go (2:49)
06 Orchestral Manoeuvres In The Dark - Enola Gay (3:29)
07 Joy Division - Love Will Tear Us Apart (3:22)
08 Japan - Quiet Life (4:48)
09 Duran Duran - Planet Earth (3:54)
10 The Human League - Being Boiled (3:39)
11 Heaven 17 - Penthouse And Pavement (3:38)
12 Simple Minds - Promised You A Miracle (3:37)
13 Kim Wilde - Kids In America (3:09)
14 Altered Images - Don't Talk To Me About Love (3:47)
15 Fiction Factory - (Feels Like) Heaven (3:29)
16 Art Of Noise - Close (To The Edit) (3:38)
17 M - Pop Muzik (3:53)
18 Jona Lewie - You'll Always Find Me In The Kitchen At Parties (3:00)
19 Gary Numan - Tubeway Army - Are 'Friends' Electric? (4:15)
20 Orchestral Manoeuvres In The Dark - Maid Of Orleans (3:55)

CD2:

01 Human League - Love Action (I Believe In Love) (4:37)
02 Heaven 17 - Temptation (3:24)
03 Spandau Ballet - To Cut A Long Story Short (3:19)
04 Scritti Politti - Absolute (4:06)
05 Blancmange - Living On The Ceiling (3:45)
06 Thompson Twins - Love On Your Side (3:29)
07 Flock Of Seagulls - Wishing (If I Had A Photograph Of You) (5:30)
08 China Crisis - Black Man Ray (3:28)
09 Thomas Dolby - Hyperactive (4:46)
10 Landscape - Einstein A Go Go (2:59)
11 Simple Minds - New Gold Dream (81 82 83 84) (5:16)
12 B E F - Groove Thang (4:06)
13 Lotus Eaters - The First Picture Of You (3:38)
14 Stephen Duffy - Kiss Me (3:26)
15 Go West - We Close Our Eyes (3:40)
16 Kajagoogoo - Too Shy (3:42)
17 Furniture - Brilliant Mind (3:41)
18 Belouis Some - Imagination (3:34)
19 It's Immaterial - Driving Away From Home (Jim's Tune) (3:49)
20 Art Of Noise - Moments In Love (4:38)

CD3:

01 Tears For Fears - Mad World (3:31)
02 Pet Shop Boys - West End Girls (3:58)
03 New Order - Blue Monday (4:59)
04 Duran Duran - The Reflex (4:21)
05 Bronski Beat - Smalltown Boy (4:28)
06 Yazoo - Situation (12' Remix) (3:40)
07 Erasure - Sometimes (3:35)
08 David Bowie - Fashion (4:08)
09 Blondie - Rapture (3:34)
10 Philip Oakey & Giorgio Moroder - Together In Electric Dreams (3:49)
11 Johnny Hates Jazz - Shattered Dreams (3:27)
12 Deborah Harry - French Kissin' In The USA (Edit) (4:10)
13 Classix Nouveaux - Is It A Dream (3:36)
14 Sigue Sigue Sputnik - Love Missile F1-11 (3:43)
15 Devo - Whip It (2:38)
16 John Foxx - Underpass (3:17)
17 Sparks - Beat The Clock (4:22)
18 Propaganda - Duel (4:14)
19 Paul Hardcastle - 19 (3:31)
20 M-A-R-R-S - Pump Up The Volume (4:00)


Exact Audio Copy V0.99 prebeta 5 from 4. May 2009

EAC extraction logfile from 19. December 2009, 21:44

Various / Ministry of Sound Anthems - Electronic 80s - CD1

Used drive : TSSTcorpCD/DVDW SH-S182M Adapter: 2 ID: 0

Read mode : Secure
Utilize accurate stream : Yes
Defeat audio cache : Yes
Make use of C2 pointers : No

Read offset correction : 6
Overread into Lead-In and Lead-Out : No
Fill up missing offset samples with silence : Yes
Delete leading and trailing silent blocks : No
Null samples used in CRC calculations : Yes
Used interface : Native Win32 interface for Win NT & 2000
Gap handling : Appended to previous track

Used output format : User Defined Encoder
Selected bitrate : 768 kBit/s
Quality : High
Add ID3 tag : No
Command line compressor : C:ProgramExact Audio CopyFlacflac.exe
Additional command line options : -8 -V -T "ARTIST=%a" -T "TITLE=%t" -T "ALBUM=%g" -T "DATE=%y" -T "TRACKNUMBER=%n" -T "GENRE=%m" -T "COMMENT=EAC FLAC -8" %s


TOC of the extracted CD

Track | Start | Length | Start sector | End sector
---------------------------------------------------------
1 | 0:00.00 | 4:38.02 | 0 | 20851
2 | 4:38.02 | 3:34.16 | 20852 | 36917
3 | 8:12.18 | 9:05.19 | 36918 | 77811
4 | 17:17.37 | 3:24.51 | 77812 | 93162
5 | 20:42.13 | 2:49.12 | 93163 | 105849
6 | 23:31.25 | 3:29.19 | 105850 | 121543
7 | 27:00.44 | 3:22.00 | 121544 | 136693
8 | 30:22.44 | 4:48.42 | 136694 | 158335
9 | 35:11.11 | 3:54.56 | 158336 | 175941
10 | 39:05.67 | 3:39.62 | 175942 | 192428
11 | 42:45.54 | 3:38.19 | 192429 | 208797
12 | 46:23.73 | 3:37.08 | 208798 | 225080
13 | 50:01.06 | 3:09.71 | 225081 | 239326
14 | 53:11.02 | 3:47.05 | 239327 | 256356
15 | 56:58.07 | 3:29.43 | 256357 | 272074
16 | 60:27.50 | 3:38.64 | 272075 | 288488
17 | 64:06.39 | 3:53.18 | 288489 | 305981
18 | 67:59.57 | 3:00.28 | 305982 | 319509
19 | 71:00.10 | 4:15.47 | 319510 | 338681
20 | 75:15.57 | 3:55.70 | 338682 | 356376


Track 1

Filename C:Lossless Music1 - Ultravox - Vienna.wav

Pre-gap length 0:00:02.00

Peak level 98.8 %
Track quality 100.0 %
Test CRC E342E130
Copy CRC E342E130
Accurately ripped (confidence 1) [1864CEAB]
Copy OK

Track 2

Filename C:Lossless Music2 - Gary Numan - Cars.wav

Pre-gap length 0:00:00.26

Peak level 98.8 %
Track quality 100.0 %
Test CRC C7F8BBC6
Copy CRC C7F8BBC6
Accurately ripped (confidence 1) [2032C782]
Copy OK

Track 3

Filename C:Lossless Music3 - Soft Cell - Tainted Love , Where Did Our Love Go (12'' mix).wav

Pre-gap length 0:00:00.26

Peak level 98.8 %
Track quality 99.9 %
Test CRC EB11E779
Copy CRC EB11E779
Accurately ripped (confidence 1) [88D45E62]
Copy OK

Track 4

Filename C:Lossless Music4 - Visage - Fade To Grey.wav

Pre-gap length 0:00:00.26

Peak level 98.8 %
Track quality 100.0 %
Test CRC A1D3CB75
Copy CRC A1D3CB75
Accurately ripped (confidence 1) [8C0BBF34]
Copy OK

Track 5

Filename C:Lossless Music5 - Yazoo - Don't Go.wav

Pre-gap length 0:00:00.26

Peak level 98.8 %
Track quality 100.0 %
Test CRC 6670C604
Copy CRC 6670C604
Accurately ripped (confidence 1) [43C443E3]
Copy OK

Track 6

Filename C:Lossless Music6 - Orchestral Manoeuvres in the Dark - Enola Gay.wav

Pre-gap length 0:00:00.28

Peak level 98.8 %
Track quality 100.0 %
Test CRC B3E2A5E4
Copy CRC B3E2A5E4
Accurately ripped (confidence 1) [829579C4]
Copy OK

Track 7

Filename C:Lossless Music7 - Joy Division - Love Will Tear Us Apart.wav

Pre-gap length 0:00:00.28

Peak level 98.8 %
Track quality 100.0 %
Test CRC 47EB52F0
Copy CRC 47EB52F0
Accurately ripped (confidence 1) [75055D6E]
Copy OK

Track 8

Filename C:Lossless Music8 - Japan - Quiet Life.wav

Pre-gap length 0:00:00.26

Peak level 98.8 %
Track quality 99.9 %
Test CRC 5C32EF7F
Copy CRC 5C32EF7F
Accurately ripped (confidence 1) [50A6BEA7]
Copy OK

Track 9

Filename C:Lossless Music9 - Duran Duran - Planet Earth.wav

Pre-gap length 0:00:00.28

Peak level 98.8 %
Track quality 99.9 %
Test CRC CE267FB8
Copy CRC CE267FB8
Accurately ripped (confidence 1) [26831039]
Copy OK

Track 10

Filename C:Lossless Music10 - The Human League - Being Boiled.wav

Pre-gap length 0:00:00.26

Peak level 98.8 %
Track quality 99.9 %
Test CRC C7A74608
Copy CRC C7A74608
Accurately ripped (confidence 1) [3F6E15F5]
Copy OK

Track 11

Filename C:Lossless Music11 - Heaven 17 - Penthouse and Pavement.wav

Pre-gap length 0:00:00.26

Peak level 98.8 %
Track quality 100.0 %
Test CRC 04C37012
Copy CRC 04C37012
Accurately ripped (confidence 1) [A8AC2142]
Copy OK

Track 12

Filename C:Lossless Music12 - Simple Minds - Promised You a Miracle.wav

Pre-gap length 0:00:00.26

Peak level 98.8 %
Track quality 100.0 %
Test CRC 1E1FAC31
Copy CRC 1E1FAC31
Accurately ripped (confidence 1) [C4F03BDC]
Copy OK

Track 13

Filename C:Lossless Music13 - Kim Wilde - Kids in America.wav

Pre-gap length 0:00:00.26

Peak level 98.8 %
Track quality 99.9 %
Test CRC 275958CB
Copy CRC 275958CB
Accurately ripped (confidence 1) [4B82E431]
Copy OK

Track 14

Filename C:Lossless Music14 - Altered Images - Don't Talk to Me About Love.wav

Pre-gap length 0:00:00.28

Peak level 98.8 %
Track quality 100.0 %
Test CRC A24BB2F2
Copy CRC A24BB2F2
Accurately ripped (confidence 1) [C4533BBD]
Copy OK

Track 15

Filename C:Lossless Music15 - Fiction Factory - (Feels like) Heaven.wav

Pre-gap length 0:00:00.26

Peak level 98.8 %
Track quality 100.0 %
Test CRC B3C2076B
Copy CRC B3C2076B
Accurately ripped (confidence 1) [6CCEAC13]
Copy OK

Track 16

Filename C:Lossless Music16 - Art of Noise - Close (To The Edit).wav

Pre-gap length 0:00:00.28

Peak level 96.5 %
Track quality 100.0 %
Test CRC 387C65E5
Copy CRC 387C65E5
Accurately ripped (confidence 1) [23F99BA8]
Copy OK

Track 17

Filename C:Lossless Music17 - M - Pop Muzik.wav

Pre-gap length 0:00:00.26

Peak level 98.8 %
Track quality 100.0 %
Test CRC F1AAE635
Copy CRC F1AAE635
Accurately ripped (confidence 1) [16644E36]
Copy OK

Track 18

Filename C:Lossless Music18 - Jona Lewie - You'll Always Find Me in the Kitchen at Parties.wav

Pre-gap length 0:00:00.28

Peak level 98.8 %
Track quality 100.0 %
Test CRC 966DEE1E
Copy CRC 966DEE1E
Accurately ripped (confidence 1) [D3F54CC8]
Copy OK

Track 19

Filename C:Lossless Music19 - Tubeway Army - Are 'Friends' Electric.wav

Pre-gap length 0:00:00.26

Peak level 98.8 %
Track quality 100.0 %
Test CRC 75650018
Copy CRC 75650018
Accurately ripped (confidence 1) [D49CA045]
Copy OK

Track 20

Filename C:Lossless Music20 - Orchestral Manoeuvres in the Dark - Maid of Orleans.wav

Pre-gap length 0:00:00.26

Peak level 98.8 %
Track quality 100.0 %
Test CRC 928D8FA6
Copy CRC 928D8FA6
Accurately ripped (confidence 1) [C632E319]
Copy OK


All tracks accurately ripped

No errors occurred

End of status report

foobar2000 1.3.8 / Dynamic Range Meter 1.1.1
log date: 2015-12-08 16:28:26

--------------------------------------------------------------------------------
Analyzed: Altered Images / Ministry of Sound Anthems - Electronic 80s - CD1 (1)
Art of Noise / Ministry of Sound Anthems - Electronic 80s - CD1 (2)
Duran Duran / Ministry of Sound Anthems - Electronic 80s - CD1 (3)
Fiction Factory / Ministry of Sound Anthems - Electronic 80s - CD1 (4)
Gary Numan / Ministry of Sound Anthems - Electronic 80s - CD1 (5)
Heaven 17 / Ministry of Sound Anthems - Electronic 80s - CD1 (6)
Japan / Ministry of Sound Anthems - Electronic 80s - CD1 (7)
Jona Lewie / Ministry of Sound Anthems - Electronic 80s - CD1 (8)
Joy Division / Ministry of Sound Anthems - Electronic 80s - CD1 (9)
Kim Wilde / Ministry of Sound Anthems - Electronic 80s - CD1 (10)
M / Ministry of Sound Anthems - Electronic 80s - CD1 (11)
Orchestral Manoeuvres in the Dark / Ministry of Sound Anthems - Electronic 80s - CD1 (12-13)
Simple Minds / Ministry of Sound Anthems - Electronic 80s - CD1 (14)
Soft Cell / Ministry of Sound Anthems - Electronic 80s - CD1 (15)
The Human League / Ministry of Sound Anthems - Electronic 80s - CD1 (16)
Tubeway Army / Ministry of Sound Anthems - Electronic 80s - CD1 (17)
Ultravox / Ministry of Sound Anthems - Electronic 80s - CD1 (18)
Visage / Ministry of Sound Anthems - Electronic 80s - CD1 (19)
Yazoo / Ministry of Sound Anthems - Electronic 80s - CD1 (20)
--------------------------------------------------------------------------------

DR Peak RMS Duration Track
--------------------------------------------------------------------------------
DR8 -0.10 dB -9.51 dB 3:47 14-Don't Talk to Me About Love
DR7 -0.30 dB -9.39 dB 3:39 16-Close (To The Edit)
DR8 -0.10 dB -9.62 dB 3:55 09-Planet Earth
DR7 -0.10 dB -8.85 dB 3:30 15-(Feels like) Heaven
DR7 -0.10 dB -9.59 dB 3:34 02-Cars
DR9 -0.10 dB -10.16 dB 3:38 11-Penthouse and Pavement
DR8 -0.10 dB -9.58 dB 4:49 08-Quiet Life
DR8 -0.10 dB -9.59 dB 3:00 18-You'll Always Find Me in the Kitchen at Parties
DR8 -0.10 dB -9.07 dB 3:22 07-Love Will Tear Us Apart
DR7 -0.10 dB -8.82 dB 3:10 13-Kids in America
DR8 -0.10 dB -9.73 dB 3:53 17-Pop Muzik
DR7 -0.10 dB -8.69 dB 3:29 06-Enola Gay
DR7 -0.10 dB -9.94 dB 3:56 20-Maid of Orleans
DR9 -0.10 dB -9.61 dB 3:37 12-Promised You a Miracle
DR9 -0.10 dB -9.50 dB 9:05 03-Tainted Love / Where Did Our Love Go (12'' mix)
DR8 -0.10 dB -9.76 dB 3:40 10-Being Boiled
DR7 -0.10 dB -9.24 dB 4:16 19-Are 'Friends' Electric
DR7 -0.10 dB -9.97 dB 4:38 01-Vienna
DR8 -0.10 dB -9.73 dB 3:25 04-Fade To Grey
DR8 -0.10 dB -9.09 dB 2:49 05-Don't Go
--------------------------------------------------------------------------------

Number of tracks: 20
Official DR value: DR8

Samplerate: 44100 Hz
Channels: 2
Bits per sample: 16
Bitrate: 935 kbps
Codec: FLAC
================================================================================


Exact Audio Copy V0.99 prebeta 5 from 4. May 2009

EAC extraction logfile from 19. December 2009, 19:50

Various / Ministry of Sound Anthems - Electronic 80s - CD2

Used drive : TSSTcorpCD/DVDW SH-S182M Adapter: 2 ID: 0

Read mode : Secure
Utilize accurate stream : Yes
Defeat audio cache : Yes
Make use of C2 pointers : No

Read offset correction : 6
Overread into Lead-In and Lead-Out : No
Fill up missing offset samples with silence : Yes
Delete leading and trailing silent blocks : No
Null samples used in CRC calculations : Yes
Used interface : Native Win32 interface for Win NT & 2000
Gap handling : Appended to previous track

Used output format : User Defined Encoder
Selected bitrate : 768 kBit/s
Quality : High
Add ID3 tag : No
Command line compressor : C:ProgramExact Audio CopyFlacflac.exe
Additional command line options : -8 -V -T "ARTIST=%a" -T "TITLE=%t" -T "ALBUM=%g" -T "DATE=%y" -T "TRACKNUMBER=%n" -T "GENRE=%m" -T "COMMENT=EAC FLAC -8" %s


TOC of the extracted CD

Track | Start | Length | Start sector | End sector
---------------------------------------------------------
1 | 0:00.00 | 4:37.66 | 0 | 20840
2 | 4:37.66 | 3:24.44 | 20841 | 36184
3 | 8:02.35 | 3:19.37 | 36185 | 51146
4 | 11:21.72 | 4:06.40 | 51147 | 69636
5 | 15:28.37 | 3:45.01 | 69637 | 86512
6 | 19:13.38 | 3:29.58 | 86513 | 102245
7 | 22:43.21 | 5:30.27 | 102246 | 127022
8 | 28:13.48 | 3:28.00 | 127023 | 142622
9 | 31:41.48 | 4:46.70 | 142623 | 164142
10 | 36:28.43 | 2:59.40 | 164143 | 177607
11 | 39:28.08 | 5:16.22 | 177608 | 201329
12 | 44:44.30 | 4:06.20 | 201330 | 219799
13 | 48:50.50 | 3:38.36 | 219800 | 236185
14 | 52:29.11 | 3:26.68 | 236186 | 251703
15 | 55:56.04 | 3:40.24 | 251704 | 268227
16 | 59:36.28 | 3:42.55 | 268228 | 284932
17 | 63:19.08 | 3:41.18 | 284933 | 301525
18 | 67:00.26 | 3:34.37 | 301526 | 317612
19 | 70:34.63 | 3:49.72 | 317613 | 334859
20 | 74:24.60 | 4:38.33 | 334860 | 355742


Track 1

Filename C:Lossless Music1 - The Human League - Love Action (I Believe in Love).wav

Pre-gap length 0:00:02.00

Peak level 98.8 %
Track quality 100.0 %
Test CRC 10C786DF
Copy CRC 10C786DF
Accurately ripped (confidence 1) [0E8EEBD8]
Copy OK

Track 2

Filename C:Lossless Music2 - Heaven 17 - Temptation.wav

Pre-gap length 0:00:00.28

Peak level 98.8 %
Track quality 100.0 %
Test CRC F56C7E1F
Copy CRC F56C7E1F
Accurately ripped (confidence 1) [18A879ED]
Copy OK

Track 3

Filename C:Lossless Music3 - Spandau Ballet - To Cut a Long Story Short.wav

Pre-gap length 0:00:00.26

Peak level 98.8 %
Track quality 100.0 %
Test CRC 9B2CC536
Copy CRC 9B2CC536
Accurately ripped (confidence 1) [69841FE2]
Copy OK

Track 4

Filename C:Lossless Music4 - Scritti Politti - Absolute.wav

Pre-gap length 0:00:00.28

Peak level 98.8 %
Track quality 100.0 %
Test CRC F7B49485
Copy CRC F7B49485
Accurately ripped (confidence 1) [38E2EFFD]
Copy OK

Track 5

Filename C:Lossless Music5 - Blancmange - Living on the Ceiling.wav

Pre-gap length 0:00:00.28

Peak level 98.8 %
Track quality 100.0 %
Test CRC 406FE670
Copy CRC 406FE670
Accurately ripped (confidence 1) [3D2E0864]
Copy OK

Track 6

Filename C:Lossless Music6 - Thompson Twins - Love on Your Side.wav

Pre-gap length 0:00:00.28

Peak level 98.8 %
Track quality 100.0 %
Test CRC A8C1822D
Copy CRC A8C1822D
Accurately ripped (confidence 1) [490ECF6A]
Copy OK

Track 7

Filename C:Lossless Music7 - A Flock of Seagulls - Wishing (If I Had a Photograph of You).wav

Pre-gap length 0:00:00.26

Peak level 98.8 %
Track quality 100.0 %
Test CRC E47F1847
Copy CRC E47F1847
Accurately ripped (confidence 1) [6A9FB0F1]
Copy OK

Track 8

Filename C:Lossless Music8 - China Crisis - Black Man Ray.wav

Pre-gap length 0:00:00.26

Peak level 98.8 %
Track quality 100.0 %
Test CRC EE2312DE
Copy CRC EE2312DE
Accurately ripped (confidence 1) [6F75D352]
Copy OK

Track 9

Filename C:Lossless Music9 - Thomas Dolby - Hyperactive.wav

Pre-gap length 0:00:00.26

Peak level 98.8 %
Track quality 100.0 %
Test CRC A60D4ABE
Copy CRC A60D4ABE
Accurately ripped (confidence 1) [96DEFDD0]
Copy OK

Track 10

Filename C:Lossless Music10 - Landscape - Einstein A Go-Go.wav

Pre-gap length 0:00:00.26

Peak level 98.8 %
Track quality 100.0 %
Test CRC AA09C067
Copy CRC AA09C067
Accurately ripped (confidence 1) [2BB0F241]
Copy OK

Track 11

Filename C:Lossless Music11 - Simple Minds - New Gold Dream (81_82_83_84).wav

Pre-gap length 0:00:00.28

Peak level 98.8 %
Track quality 100.0 %
Test CRC ACBEF2B8
Copy CRC ACBEF2B8
Accurately ripped (confidence 1) [F7DCAE2C]
Copy OK

Track 12

Filename C:Lossless Music12 - B.E.F. - Groove Thang.wav

Pre-gap length 0:00:00.28

Peak level 98.8 %
Track quality 100.0 %
Test CRC FF062A0A
Copy CRC FF062A0A
Accurately ripped (confidence 1) [C45B0090]
Copy OK

Track 13

Filename C:Lossless Music13 - The Lotus Eaters - The First Picture of You.wav

Pre-gap length 0:00:00.28

Peak level 98.8 %
Track quality 99.9 %
Test CRC 50D76815
Copy CRC 50D76815
Accurately ripped (confidence 1) [58345014]
Copy OK

Track 14

Filename C:Lossless Music14 - Stephen Duffy - Kiss Me.wav

Pre-gap length 0:00:00.26

Peak level 98.8 %
Track quality 100.0 %
Test CRC B62E2A22
Copy CRC B62E2A22
Accurately ripped (confidence 1) [A7C3999F]
Copy OK

Track 15

Filename C:Lossless Music15 - Go West - We Close Our Eyes.wav

Pre-gap length 0:00:00.26

Peak level 98.8 %
Track quality 100.0 %
Test CRC DCFC818B
Copy CRC DCFC818B
Accurately ripped (confidence 1) [DFC727C1]
Copy OK

Track 16

Filename C:Lossless Music16 - Kajagoogoo - Too Shy.wav

Pre-gap length 0:00:00.28

Peak level 98.8 %
Track quality 100.0 %
Test CRC 3985DCF7
Copy CRC 3985DCF7
Accurately ripped (confidence 1) [2DF3967B]
Copy OK

Track 17

Filename C:Lossless Music17 - Furniture - Brilliant Mind.wav

Pre-gap length 0:00:00.26

Peak level 98.8 %
Track quality 100.0 %
Test CRC FCB6FB4A
Copy CRC FCB6FB4A
Accurately ripped (confidence 1) [7FE0CCD1]
Copy OK

Track 18

Filename C:Lossless Music18 - Belouis Some - Imagination.wav

Pre-gap length 0:00:00.28

Peak level 98.8 %
Track quality 99.9 %
Test CRC 56431325
Copy CRC 56431325
Accurately ripped (confidence 1) [A926C19F]
Copy OK

Track 19

Filename C:Lossless Music19 - It's Immaterial - Driving Away From Home (Jim's Tune).wav

Pre-gap length 0:00:00.26

Peak level 98.8 %
Track quality 100.0 %
Test CRC 5A2152FF
Copy CRC 5A2152FF
Accurately ripped (confidence 1) [F29EEC1A]
Copy OK

Track 20

Filename C:Lossless Music20 - Art of Noise - Moments in Love.wav

Pre-gap length 0:00:00.26

Peak level 98.8 %
Track quality 100.0 %
Test CRC FDA5C72D
Copy CRC FDA5C72D
Accurately ripped (confidence 1) [FCB7A2FA]
Copy OK


All tracks accurately ripped

No errors occurred

End of status report

foobar2000 1.3.8 / Dynamic Range Meter 1.1.1
log date: 2015-12-08 16:29:40

--------------------------------------------------------------------------------
Analyzed: A Flock of Seagulls / Ministry of Sound Anthems - Electronic 80s - CD2 (1)
Art of Noise / Ministry of Sound Anthems - Electronic 80s - CD2 (2)
B.E.F. / Ministry of Sound Anthems - Electronic 80s - CD2 (3)
Belouis Some / Ministry of Sound Anthems - Electronic 80s - CD2 (4)
Blancmange / Ministry of Sound Anthems - Electronic 80s - CD2 (5)
China Crisis / Ministry of Sound Anthems - Electronic 80s - CD2 (6)
Furniture / Ministry of Sound Anthems - Electronic 80s - CD2 (7)
Go West / Ministry of Sound Anthems - Electronic 80s - CD2 (8)
Heaven 17 / Ministry of Sound Anthems - Electronic 80s - CD2 (9)
It's Immaterial / Ministry of Sound Anthems - Electronic 80s - CD2 (10)
Kajagoogoo / Ministry of Sound Anthems - Electronic 80s - CD2 (11)
Landscape / Ministry of Sound Anthems - Electronic 80s - CD2 (12)
Scritti Politti / Ministry of Sound Anthems - Electronic 80s - CD2 (13)
Simple Minds / Ministry of Sound Anthems - Electronic 80s - CD2 (14)
Spandau Ballet / Ministry of Sound Anthems - Electronic 80s - CD2 (15)
Stephen Duffy / Ministry of Sound Anthems - Electronic 80s - CD2 (16)
The Human League / Ministry of Sound Anthems - Electronic 80s - CD2 (17)
The Lotus Eaters / Ministry of Sound Anthems - Electronic 80s - CD2 (18)
Thomas Dolby / Ministry of Sound Anthems - Electronic 80s - CD2 (19)
Thompson Twins / Ministry of Sound Anthems - Electronic 80s - CD2 (20)
--------------------------------------------------------------------------------

DR Peak RMS Duration Track
--------------------------------------------------------------------------------
DR7 -0.10 dB -8.56 dB 5:30 07-Wishing (If I Had a Photograph of You)
DR9 -0.10 dB -11.48 dB 4:38 20-Moments in Love
DR8 -0.10 dB -9.63 dB 4:06 12-Groove Thang
DR7 -0.10 dB -8.89 dB 3:34 18-Imagination
DR8 -0.10 dB -9.26 dB 3:45 05-Living on the Ceiling
DR8 -0.10 dB -10.26 dB 3:28 08-Black Man Ray
DR7 -0.10 dB -8.54 dB 3:41 17-Brilliant Mind
DR8 -0.10 dB -9.25 dB 3:40 15-We Close Our Eyes
DR8 -0.10 dB -9.12 dB 3:25 02-Temptation
DR8 -0.10 dB -9.12 dB 3:50 19-Driving Away From Home (Jim's Tune)
DR8 -0.10 dB -9.34 dB 3:43 16-Too Shy
DR8 -0.10 dB -10.37 dB 3:00 10-Einstein A Go-Go
DR7 -0.10 dB -9.28 dB 4:07 04-Absolute
DR8 -0.10 dB -9.50 dB 5:16 11-New Gold Dream (81_82_83_84)
DR8 -0.10 dB -9.33 dB 3:19 03-To Cut a Long Story Short
DR8 -0.10 dB -8.86 dB 3:27 14-Kiss Me
DR9 -0.10 dB -10.66 dB 4:38 01-Love Action (I Believe in Love)
DR7 -0.10 dB -9.48 dB 3:38 13-The First Picture of You
DR8 -0.10 dB -9.12 dB 4:47 09-Hyperactive
DR8 -0.10 dB -10.06 dB 3:30 06-Love on Your Side
--------------------------------------------------------------------------------

Number of tracks: 20
Official DR value: DR8

Samplerate: 44100 Hz
Channels: 2
Bits per sample: 16
Bitrate: 987 kbps
Codec: FLAC
================================================================================


Exact Audio Copy V0.99 prebeta 5 from 4. May 2009

EAC extraction logfile from 19. December 2009, 20:47

Various / Ministry of Sound Anthems - Electronic 80s - CD3

Used drive : TSSTcorpCD/DVDW SH-S182M Adapter: 2 ID: 0

Read mode : Secure
Utilize accurate stream : Yes
Defeat audio cache : Yes
Make use of C2 pointers : No

Read offset correction : 6
Overread into Lead-In and Lead-Out : No
Fill up missing offset samples with silence : Yes
Delete leading and trailing silent blocks : No
Null samples used in CRC calculations : Yes
Used interface : Native Win32 interface for Win NT & 2000
Gap handling : Appended to previous track

Used output format : User Defined Encoder
Selected bitrate : 768 kBit/s
Quality : High
Add ID3 tag : No
Command line compressor : C:ProgramExact Audio CopyFlacflac.exe
Additional command line options : -8 -V -T "ARTIST=%a" -T "TITLE=%t" -T "ALBUM=%g" -T "DATE=%y" -T "TRACKNUMBER=%n" -T "GENRE=%m" -T "COMMENT=EAC FLAC -8" %s


TOC of the extracted CD

Track | Start | Length | Start sector | End sector
---------------------------------------------------------
1 | 0:00.00 | 3:31.02 | 0 | 15826
2 | 3:31.02 | 3:58.58 | 15827 | 33734
3 | 7:29.60 | 4:59.06 | 33735 | 56165
4 | 12:28.66 | 4:21.54 | 56166 | 75794
5 | 16:50.45 | 4:28.56 | 75795 | 95950
6 | 21:19.26 | 3:40.29 | 95951 | 112479
7 | 24:59.55 | 3:35.72 | 112480 | 128676
8 | 28:35.52 | 4:08.67 | 128677 | 147343
9 | 32:44.44 | 3:34.13 | 147344 | 163406
10 | 36:18.57 | 3:49.23 | 163407 | 180604
11 | 40:08.05 | 3:27.45 | 180605 | 196174
12 | 43:35.50 | 4:10.16 | 196175 | 214940
13 | 47:45.66 | 3:36.51 | 214941 | 231191
14 | 51:22.42 | 3:43.13 | 231192 | 247929
15 | 55:05.55 | 2:38.16 | 247930 | 259795
16 | 57:43.71 | 3:17.59 | 259796 | 274629
17 | 61:01.55 | 4:22.26 | 274630 | 294305
18 | 65:24.06 | 4:14.07 | 294306 | 313362
19 | 69:38.13 | 3:31.09 | 313363 | 329196
20 | 73:09.22 | 4:00.62 | 329197 | 347258


Track 1

Filename C:Lossless Music1 - Tears for Fears - Mad World.wav

Pre-gap length 0:00:02.00

Peak level 98.8 %
Track quality 100.0 %
Test CRC 4FC0D8AE
Copy CRC 4FC0D8AE
Accurately ripped (confidence 1) [D55890D2]
Copy OK

Track 2

Filename C:Lossless Music2 - Pet Shop Boys - West End Girls.wav

Pre-gap length 0:00:00.28

Peak level 98.8 %
Track quality 100.0 %
Test CRC 3D46B950
Copy CRC 3D46B950
Accurately ripped (confidence 1) [88BFA254]
Copy OK

Track 3

Filename C:Lossless Music3 - New Order - Blue Monday.wav

Pre-gap length 0:00:00.26

Peak level 98.8 %
Track quality 100.0 %
Test CRC CDE15775
Copy CRC CDE15775
Accurately ripped (confidence 1) [AD0149A7]
Copy OK

Track 4

Filename C:Lossless Music4 - Duran Duran - The Reflex.wav

Pre-gap length 0:00:00.28

Peak level 98.8 %
Track quality 100.0 %
Test CRC 2D5F088B
Copy CRC 2D5F088B
Accurately ripped (confidence 1) [AFC7C4A2]
Copy OK

Track 5

Filename C:Lossless Music5 - Bronski Beat - Smalltown Boy.wav

Pre-gap length 0:00:00.28

Peak level 98.8 %
Track quality 100.0 %
Test CRC FB53E4DE
Copy CRC FB53E4DE
Accurately ripped (confidence 1) [D0D514C8]
Copy OK

Track 6

Filename C:Lossless Music6 - Yazoo - Situation (12'' remix).wav

Pre-gap length 0:00:00.26

Peak level 98.8 %
Track quality 100.0 %
Test CRC FE1B9BA8
Copy CRC FE1B9BA8
Accurately ripped (confidence 1) [AA94A383]
Copy OK

Track 7

Filename C:Lossless Music7 - Erasure - Sometimes.wav

Pre-gap length 0:00:00.28

Peak level 98.8 %
Track quality 100.0 %
Test CRC 2395C2F8
Copy CRC 2395C2F8
Accurately ripped (confidence 1) [5D2113F7]
Copy OK

Track 8

Filename C:Lossless Music8 - David Bowie - Fashion (radio edit).wav

Pre-gap length 0:00:00.26

Peak level 98.8 %
Track quality 100.0 %
Test CRC 08B57C8F
Copy CRC 08B57C8F
Accurately ripped (confidence 1) [59812228]
Copy OK

Track 9

Filename C:Lossless Music9 - Blondie - Rapture.wav

Pre-gap length 0:00:00.28

Peak level 98.8 %
Track quality 99.9 %
Test CRC F74D0C04
Copy CRC F74D0C04
Accurately ripped (confidence 1) [EB49786A]
Copy OK

Track 10

Filename C:Lossless Music10 - Philip Oakey & Giorgio Moroder - Together in Electric Dreams.wav

Pre-gap length 0:00:00.28

Peak level 98.8 %
Track quality 100.0 %
Test CRC 85DEA0B4
Copy CRC 85DEA0B4
Accurately ripped (confidence 1) [6A05A2B5]
Copy OK

Track 11

Filename C:Lossless Music11 - Johnny Hates Jazz - Shattered Dreams.wav

Pre-gap length 0:00:00.28

Peak level 93.3 %
Track quality 100.0 %
Test CRC 90BEC13A
Copy CRC 90BEC13A
Accurately ripped (confidence 1) [A0A63167]
Copy OK

Track 12

Filename C:Lossless Music12 - Deborah Harry - French Kissin' in the USA (edit).wav

Pre-gap length 0:00:00.28

Peak level 98.8 %
Track quality 100.0 %
Test CRC 418CC7DE
Copy CRC 418CC7DE
Accurately ripped (confidence 1) [165FFB73]
Copy OK

Track 13

Filename C:Lossless Music13 - Classix Nouveaux - Is It a Dream.wav

Pre-gap length 0:00:00.28

Peak level 98.8 %
Track quality 100.0 %
Test CRC D8EBD54F
Copy CRC D8EBD54F
Accurately ripped (confidence 1) [477B24E7]
Copy OK

Track 14

Filename C:Lossless Music14 - Sigue Sigue Sputnik - Love Missile F1-11.wav

Pre-gap length 0:00:00.28

Peak level 98.8 %
Track quality 100.0 %
Test CRC 142AED42
Copy CRC 142AED42
Accurately ripped (confidence 1) [02EFB509]
Copy OK

Track 15

Filename C:Lossless Music15 - Devo - Whip It.wav

Pre-gap length 0:00:00.28

Peak level 98.8 %
Track quality 100.0 %
Test CRC BEB3E9BD
Copy CRC BEB3E9BD
Accurately ripped (confidence 1) [04A061E6]
Copy OK

Track 16

Filename C:Lossless Music16 - John Foxx - Underpass.wav

Pre-gap length 0:00:00.26

Peak level 98.8 %
Track quality 100.0 %
Test CRC CD8B4C45
Copy CRC CD8B4C45
Accurately ripped (confidence 1) [D3474CC2]
Copy OK

Track 17

Filename C:Lossless Music17 - Sparks - Beat the Clock.wav

Pre-gap length 0:00:00.28

Peak level 98.8 %
Track quality 99.9 %
Test CRC B80558D5
Copy CRC B80558D5
Accurately ripped (confidence 1) [C0894538]
Copy OK

Track 18

Filename C:Lossless Music18 - Propaganda - Duel.wav

Pre-gap length 0:00:00.26

Peak level 98.8 %
Track quality 100.0 %
Test CRC 05336280
Copy CRC 05336280
Accurately ripped (confidence 1) [47EF31E9]
Copy OK

Track 19

Filename C:Lossless Music19 - Paul Hardcastle - 19.wav

Pre-gap length 0:00:00.28

Peak level 98.8 %
Track quality 100.0 %
Test CRC 83114791
Copy CRC 83114791
Accurately ripped (confidence 1) [591EA83D]
Copy OK

Track 20

Filename C:Lossless Music20 - M_A_R_R_S - Pump Up the Volume.wav

Pre-gap length 0:00:00.28

Peak level 98.8 %
Track quality 100.0 %
Test CRC 666EA284
Copy CRC 666EA284
Accurately ripped (confidence 1) [BE5FE1F8]
Copy OK


All tracks accurately ripped

No errors occurred

End of status report

foobar2000 1.3.8 / Dynamic Range Meter 1.1.1
log date: 2015-12-08 16:30:47

--------------------------------------------------------------------------------
Analyzed: Blondie / Ministry of Sound Anthems - Electronic 80s - CD3 (1)
Bronski Beat / Ministry of Sound Anthems - Electronic 80s - CD3 (2)
Classix Nouveaux / Ministry of Sound Anthems - Electronic 80s - CD3 (3)
David Bowie / Ministry of Sound Anthems - Electronic 80s - CD3 (4)
Deborah Harry / Ministry of Sound Anthems - Electronic 80s - CD3 (5)
Devo / Ministry of Sound Anthems - Electronic 80s - CD3 (6)
Duran Duran / Ministry of Sound Anthems - Electronic 80s - CD3 (7)
Erasure / Ministry of Sound Anthems - Electronic 80s - CD3 (8)
John Foxx / Ministry of Sound Anthems - Electronic 80s - CD3 (9)
Johnny Hates Jazz / Ministry of Sound Anthems - Electronic 80s - CD3 (10)
M_A_R_R_S / Ministry of Sound Anthems - Electronic 80s - CD3 (11)
New Order / Ministry of Sound Anthems - Electronic 80s - CD3 (12)
Paul Hardcastle / Ministry of Sound Anthems - Electronic 80s - CD3 (13)
Pet Shop Boys / Ministry of Sound Anthems - Electronic 80s - CD3 (14)
Philip Oakey & Giorgio Moroder / Ministry of Sound Anthems - Electronic 80s - CD3 (15)
Propaganda / Ministry of Sound Anthems - Electronic 80s - CD3 (16)
Sigue Sigue Sputnik / Ministry of Sound Anthems - Electronic 80s - CD3 (17)
Sparks / Ministry of Sound Anthems - Electronic 80s - CD3 (18)
Tears for Fears / Ministry of Sound Anthems - Electronic 80s - CD3 (19)
Yazoo / Ministry of Sound Anthems - Electronic 80s - CD3 (20)
--------------------------------------------------------------------------------

DR Peak RMS Duration Track
--------------------------------------------------------------------------------
DR8 -0.10 dB -9.53 dB 3:34 09-Rapture
DR6 -0.10 dB -8.83 dB 4:29 05-Smalltown Boy
DR8 -0.10 dB -8.79 dB 3:37 13-Is It a Dream
DR8 -0.10 dB -10.11 dB 4:09 08-Fashion (radio edit)
DR7 -0.10 dB -8.99 dB 4:10 12-French Kissin' in the USA (edit)
DR9 -0.10 dB -9.71 dB 2:38 15-Whip It
DR7 -0.10 dB -8.40 dB 4:22 04-The Reflex
DR8 -0.10 dB -9.01 dB 3:36 07-Sometimes
DR8 -0.10 dB -9.52 dB 3:18 16-Underpass
DR7 -0.60 dB -9.28 dB 3:28 11-Shattered Dreams
DR9 -0.10 dB -11.08 dB 4:01 20-Pump Up the Volume
DR9 -0.10 dB -9.84 dB 4:59 03-Blue Monday
DR10 -0.10 dB -10.84 dB 3:31 19-19
DR8 -0.10 dB -9.84 dB 3:59 02-West End Girls
DR7 -0.10 dB -9.51 dB 3:49 10-Together in Electric Dreams
DR8 -0.10 dB -9.46 dB 4:14 18-Duel
DR7 -0.10 dB -8.86 dB 3:43 14-Love Missile F1-11
DR8 -0.10 dB -9.53 dB 4:22 17-Beat the Clock
DR7 -0.10 dB -8.59 dB 3:31 01-Mad World
DR9 -0.10 dB -9.63 dB 3:40 06-Situation (12'' remix)
--------------------------------------------------------------------------------

Number of tracks: 20
Official DR value: DR8

Samplerate: 44100 Hz
Channels: 2
Bits per sample: 16
Bitrate: 934 kbps
Codec: FLAC
================================================================================



All thanks to original releaser - WRZ