Martin Cilia - Electric Christmas (2015)


Martin Cilia - Electric Christmas (2015)
EAC Rip | FLAC (Img) + Cue + Log ~ 312 Mb | MP3 CBR320 ~ 122 Mb
Scans Included (JPG, 600 dpi) | RAR 5% Recovery
Surf, Instrumental Rock | Bombora Creative #BOMBORA 31

Martin Cilia is Australia's premier surf rock guitarist and also a member of legendary Australian surf band, The Atlantics. He has released five successful solo albums, with the latest “Electric Christmas” released October 2015. A dynamic live performer, Martin and his band draw tunes from the repertoire Duane Allman, Chuck Berry, Brian May, Harry Belafonte and the Marlborough Man.

"I first heard Christmas songs when I was growing up in England in the 60s. They were such an important part of what made Christmas special for me, along with snow, Christmas trees and tinsel.
Most of these tunes are of European origin, When selecting tracks for this album, I leant towards those that were familiar to me from that time. These are new arrangements that explore the tunes while paying respect to the traditional melodies. This album comprises of 11 classic tunes as well as 3 newly composed songs.
And remember, as a wise, jolly, old man in a red suit once said “Christmas is only magical if you have a little bit of belief left from your childhood.” I couldn’t agree more. Happy listening."
~ martincilia.com


| |

***************


Track List:

01. Oh Come All Ye Faithful [02:44]
02. Deck the Halls [02:34]
03. Good King Wenceslas [02:32]
04. Christmas in July [03:24]
05. Hark the Herald Angels Sing [02:57]
06. Christmas Stomp [02:27]
07. Jingle Bells [03:13]
08. Little Drummer Boy [03:55]
09. We Wish You a Merry Christmas [02:38]
10. Away in a Manger [03:12]
11. God Rest Ye Merry Gentlemen [02:55]
12. South of the Equator [02:35]
13. Auld Lang Syne [03:44]
14. Silent Night [03:28]

Exact Audio Copy V1.0 beta 3 from 29. August 2011

Отчёт EAC об извлечении, выполненном 28. ноября 2015, 16:13

Martin Cilia / Electric Christmas

Дисковод: PLEXTOR DVDR PX-880SA Adapter: 1 ID: 0

Режим чтения : Достоверность
Использование точного потока : Да
Отключение кэша аудио : Да
Использование указателей C2 : Нет

Коррекция смещения при чтении : 6
Способность читать области Lead-in и Lead-out : Нет
Заполнение пропущенных сэмплов тишиной : Да
Удаление блоков с тишиной в начале и конце : Нет
При вычислениях CRC использовались нулевые сэмплы : Да
Интерфейс : Установленный внешний ASPI-интерфейс

Выходной формат : Пользовательский кодировщик
Выбранный битрейт : 1024 kBit/s
Качество : Высокий
Добавление ID3-тега : Нет
Утилита сжатия : C:Program FilesExact Audio CopyFLACFLAC.EXE
Дополнительные параметры : -8 -V -T "ARTIST=%artist%" -T "ALBUM=%albumtitle%" -T "DATE=%year%" -T "GENRE=%genre%" -T "COMMENT=ripped by izia1956" %source%


TOC извлечённого CD

Трек | Старт | Длительность | Начальный сектор | Конечный сектор
---------------------------------------------------------------------
1 | 0:00.00 | 2:43.47 | 0 | 12271
2 | 2:43.47 | 2:33.10 | 12272 | 23756
3 | 5:16.57 | 2:31.02 | 23757 | 35083
4 | 7:47.59 | 3:23.72 | 35084 | 50380
5 | 11:11.56 | 2:56.58 | 50381 | 63638
6 | 14:08.39 | 2:26.27 | 63639 | 74615
7 | 16:34.66 | 3:12.51 | 74616 | 89066
8 | 19:47.42 | 3:54.07 | 89067 | 106623
9 | 23:41.49 | 2:37.61 | 106624 | 118459
10 | 26:19.35 | 3:11.63 | 118460 | 132847
11 | 29:31.23 | 2:54.58 | 132848 | 145955
12 | 32:26.06 | 2:34.53 | 145956 | 157558
13 | 35:00.59 | 3:43.14 | 157559 | 174297
14 | 38:43.73 | 3:27.43 | 174298 | 189865


Характеристики диапазона извлечения и сообщения об ошибках

Выбранный диапазон

Имя файла D:BitCometMartin Cilia2015 - Electric ChristmasMartin Cilia - Electric Christmas.wav

Пиковый уровень 100.0 %
Скорость извлечения 2.4 X
Качество диапазона 100.0 %
CRC теста 469A26AB
CRC копии 469A26AB
Копирование... OK

Ошибок не произошло


AccurateRip: сводка

Трек 1 отсутствует в базе данных
Трек 2 отсутствует в базе данных
Трек 3 отсутствует в базе данных
Трек 4 отсутствует в базе данных
Трек 5 отсутствует в базе данных
Трек 6 отсутствует в базе данных
Трек 7 отсутствует в базе данных
Трек 8 отсутствует в базе данных
Трек 9 отсутствует в базе данных
Трек 10 отсутствует в базе данных
Трек 11 отсутствует в базе данных
Трек 12 отсутствует в базе данных
Трек 13 отсутствует в базе данных
Трек 14 отсутствует в базе данных

Ни одного трека нет в базе AccurateRip

Конец отчёта

==== Контрольная сумма отчёта F4556B962009260B72F3FCF95EE6A24FFBD664B29DCB7E2B37A7AB777B824C50 ====

foobar2000 1.2.6 / Dynamic Range Meter 1.1.1
log date: 2015-12-10 21:38:07

--------------------------------------------------------------------------------
Analyzed: Martin Cilia / Electric Christmas
--------------------------------------------------------------------------------

DR Peak RMS Duration Track
--------------------------------------------------------------------------------
DR8 0.00 dB -9.20 dB 2:44 01-Oh Come All Ye Faithful
DR11 0.00 dB -12.04 dB 2:33 02-Deck the Halls
DR12 0.00 dB -12.55 dB 2:31 03-Good King Wenceslas
DR9 0.00 dB -9.57 dB 3:24 04-Christmas in July
DR10 0.00 dB -10.72 dB 2:57 05-Hark the Herald Angels Sing
DR10 0.00 dB -10.53 dB 2:26 06-Christmas Stomp
DR9 0.00 dB -9.79 dB 3:13 07-Jingle Bells
DR8 0.00 dB -9.38 dB 3:54 08-Little Drummer Boy
DR9 0.00 dB -9.87 dB 2:38 09-We Wish You a Merry Christmas
DR7 0.00 dB -7.59 dB 3:12 10-Away in a Manger
DR9 0.00 dB -10.07 dB 2:55 11-God Rest Ye Merry Gentlemen
DR10 0.00 dB -10.39 dB 2:35 12-South of the Equator
DR10 0.00 dB -10.89 dB 3:43 13-Auld Lang Syne
DR8 0.00 dB -9.32 dB 3:28 14-Silent Night
--------------------------------------------------------------------------------

Number of tracks: 14
Official DR value: DR9

Samplerate: 44100 Hz
Channels: 2
Bits per sample: 16
Bitrate: 920 kbps
Codec: FLAC
================================================================================

[CUETools log; Date: 10.12.2015 21:37:45; Version: 2.1.5]
[CTDB TOCID: 3gr1ivawIDcYq7rT3GG7yDPZPAY-] disk not present in database.
[AccurateRip ID: 0014f8db-00e1cd68-c709e30e] disk not present in database.

Track Peak [ CRC32 ] [W/O NULL] [ LOG ]
-- 100,0 [469A26AB] [95AE46A4] CRC32
01 100,0 [D7ADCA68] [2A5A4693]
02 100,0 [982CD8DA] [C1256897]
03 100,0 [6F0E3C17] [B25E1E58]
04 100,0 [659BD512] [FF8C84C1]
05 100,0 [5656B243] [E96EEFC9]
06 100,0 [B8637A9F] [982EB01A]
07 100,0 [4BB62CE7] [58A4516D]
08 100,0 [54797D12] [E4910787]
09 100,0 [55CD9722] [A4E3B4DB]
10 100,0 [1D952185] [0EA1F6F9]
11 100,0 [C0B2D499] [8396594C]
12 100,0 [56BD545B] [CE1567FD]
13 100,0 [3380319F] [925D1F9A]
14 100,0 [80AAF273] [8BAF3810]



See also:



All thanks go to izia1956



No mirrors, please!

Download: