Dave Hole - Rough Diamond (2007) [Blind Pig]


Dave Hole - Rough Diamond (2007)
EAC | FLAC | Image (Cue&Log) ~ 392 Mb (incl 5%) | Mp3 (CBR320) ~ 143 Mb (incl 5%) | Scans included
Genre: Slide Guitar Blues, Modern Electric Blues, Blues-Rock | Label: Blind Pig Records | # BPCD 5114 | Time: 00:53:26

After seven house-rocking albums for Alligator, Dave Hole moves to the Blind Pig label--America's other established blues indie--for this solid, if somewhat predictable, release. In certain respects, the journeyman Australian slide guitarist is comparable to stalwarts such as George Thorogood, since his discs are nearly interchangeable yet none disappoint. Both artists also rely heavily on well-chosen covers. The slide demon taps into tracks from obvious inspirations such as Elmore James, Slim Harpo, and Robert Johnson, along with rearranged tunes written by the far less obvious likes of Willy Deville ("White Trash Girl"), Ivory Joe Hunter ("Since I Met You Baby"), and even Buddy Holly ("Think It Over"). But Hole's originals are plenty sturdy, as demonstrated by the opening riff-rocker "Rough Diamond Child" and the atypically tender ballad "Yours for a Song." Still, it's the sizzling solos that drive these tunes, and Hole's scorching tone--something like a mix of James and Rory Gallagher--torches everything it touches. He makes the guitar sing, howl, moan, or cry depending on the mood, but never lets his molten leads overwhelm the songs. The album-closing version of "I'm a King Bee" stings like the titular bug as Hole buzzes and burns through a showcase that shifts from grinding to gentle and back. The no-frills, three-piece backing band provides able accompaniment--that is, they stay out of the way--as Hole's passionate playing proves that the blues can be powerful and potent, even from a continent away.

Review by Hal Horowitz







Tracklist:

01. Rough Diamond Child (04:48)
02. Can't Stop Loving You (04:53)
03. Vintage Wine (04:13)
04. Yours For a Song (05:16)
05. White Trash Girl (05:54)
06. Since I Met You Baby (04:35)
07. I'll Get To You (04:09)
08. Something Inside Of Me (06:23)
09. Rambling On My Mind (03:37)
10. Think It Over (03:10)
11. I'm a King Bee (06:25)


Exact Audio Copy V0.99 prebeta 5 from 4. May 2009

Отчёт EAC об извлечении, выполненном 26. ноября 2015, 15:32

Dave Hole / Rough Diamond

Дисковод: ASUS DRW-24F1ST a Adapter: 0 ID: 0

Режим чтения : Достоверность
Использование точного потока : Да
Отключение кэша аудио : Да
Использование указателей C2 : Нет

Коррекция смещения при чтении : 6
Способность читать области Lead-in и Lead-out : Нет
Заполнение пропущенных сэмплов тишиной : Да
Удаление блоков с тишиной в начале и конце : Нет
При вычислениях CRC использовались нулевые сэмплы : Да
Интерфейс : Встроенный Win32-интерфейс для Win NT/2000

Выходной формат : Пользовательский кодировщик
Выбранный битрейт : 768 kBit/s
Качество : Высокий
Добавление ID3-тэга : Нет
Утилита сжатия : D:5. Other1. ProgrammesExact Audio CopyFLACFLAC.EXE
Дополнительные параметры : -6 -V -T "ARTIST=%a" -T "TITLE=%t" -T "ALBUM=%g" -T "DATE=%y" -T "TRACKNUMBER=%n" -T "GENRE=%m" -T "COMMENT=%e" %s -o %d


TOC извлечённого CD

Трек | Старт | Длительность | Начальный сектор | Конечный сектор
---------------------------------------------------------------------
1 | 0:00.00 | 4:48.07 | 0 | 21606
2 | 4:48.07 | 4:53.15 | 21607 | 43596
3 | 9:41.22 | 4:13.05 | 43597 | 62576
4 | 13:54.27 | 5:16.53 | 62577 | 86329
5 | 19:11.05 | 5:54.70 | 86330 | 112949
6 | 25:06.00 | 4:35.55 | 112950 | 133629
7 | 29:41.55 | 4:09.45 | 133630 | 152349
8 | 33:51.25 | 6:23.00 | 152350 | 181074
9 | 40:14.25 | 3:37.22 | 181075 | 197371
10 | 43:51.47 | 3:10.05 | 197372 | 211626
11 | 47:01.52 | 6:25.05 | 211627 | 240506


Характеристики диапазона извлечения и сообщения об ошибках

Выбранный диапазон

Имя файла D:Dave Hole - Rough Diamond (2007)Dave Hole - Rough Diamond.wav

Пиковый уровень 100.0 %
Качество диапазона 99.9 %
CRC теста C15199E3
CRC копии C15199E3
Копирование... OK

Ошибок не произошло


AccurateRip: сводка

Трек 1 точное извлечение (доверие 6) [3C72409F]
Трек 2 точное извлечение (доверие 6) [6F228273]
Трек 3 точное извлечение (доверие 6) [4D8AA9D5]
Трек 4 точное извлечение (доверие 6) [543D6792]
Трек 5 точное извлечение (доверие 6) [7A19D5F1]
Трек 6 точное извлечение (доверие 6) [ADC734CB]
Трек 7 точное извлечение (доверие 6) [8C16A76D]
Трек 8 точное извлечение (доверие 6) [264DAD34]
Трек 9 точное извлечение (доверие 6) [F6C20426]
Трек 10 точное извлечение (доверие 6) [A06E5175]
Трек 11 точное извлечение (доверие 6) [26AFD543]

Все треки извлечены точно

Конец отчёта

foobar2000 1.3.8 / Dynamic Range Meter 1.1.1
log date: 2015-12-07 21:00:47

--------------------------------------------------------------------------------
Analyzed: Dave Hole / Rough Diamond
--------------------------------------------------------------------------------

DR Peak RMS Duration Track
--------------------------------------------------------------------------------
DR7 0.00 dB -7.68 dB 4:48 01-Rough Diamond Child
DR7 0.00 dB -7.92 dB 4:53 02-Can't Stop Loving You
DR7 0.00 dB -7.54 dB 4:13 03-Vintage Wine
DR8 0.00 dB -9.72 dB 5:17 04-Yours For a Song
DR6 0.00 dB -7.22 dB 5:55 05-White Trash Girl
DR7 0.00 dB -7.68 dB 4:36 06-Since I Met You Baby
DR6 0.00 dB -7.17 dB 4:10 07-I'll Get To You
DR6 0.00 dB -6.93 dB 6:23 08-Something Inside Of Me
DR6 0.00 dB -6.81 dB 3:37 09-Rambling On My Mind
DR6 0.00 dB -6.78 dB 3:10 10-Think It Over
DR6 0.00 dB -7.45 dB 6:25 11-I'm a King Bee
--------------------------------------------------------------------------------

Number of tracks: 11
Official DR value: DR7

Samplerate: 44100 Hz
Channels: 2
Bits per sample: 16
Bitrate: 941 kbps
Codec: FLAC
================================================================================



All thanks to original releaser - lukya