Вход в свой аккаунт

Или войдите через соц. сети

Various Artists - Rudolph The Red-Nosed Reindeer (Original Soundtrack) (1964) [2012 MCA]


Various Artists - Rudolph The Red-Nosed Reindeer (Original Soundtrack) (1964) [2012 MCA]
EAC Secure Rip | FLAC (Image + Cue + Log) - 216 MB | Complete Scans (Jpeg 600 dpi) - 28 MB | MP3 (CBR320 Kbps) - 108 MB
Traditional, Soundtrack, Christmas | MCA Records, Inc. | B0017227-02 | 36:19 minutes | Hosted on: NitroFlare & Oboom

Rudolph the Red-Nosed Reindeer is a soundtrack album to the 1964 Rankin/Bass television special of the same name. The original cast recordings from the TV special (side "A" of the original LP release) are supplemented with instrumental versions recorded by the Decca Concert Orchestra (on side "B"). All songs used in the television special were written by Johnny Marks.

“ The Rankin/Bass animagic film Rudolph the Red-Nosed Reindeer first appeared on December 6, 1964. Since then, it has become the longest-running of all holiday TV specials (with, we hope, no end in sight). It's fitting that the grandfather of all Christmas specials features Burl Ives, still remembered warmly by millions as the voice behind the film's narrator, Sam the Snowman. Although this soundtrack bears his name, Ives appears only on a handful of songs: "Rudolph the Red-Nosed Reindeer," "A Holly Jolly Christmas," and "Silver and Gold." The remaining vocals are handled by various cast members: "Jingle Jingle Jingle" features Stan Francis as Santa; "We're a Couple of Misfits" is sung by Billie Mae Richards (the voice of Rudolph) and Paul Soles (the voice of Hermie); "There's Always Tomorrow" is immortalized by Janet Orenstein (as Clarice), and a chorus shares "The Most Wonderful Day of the Year." The real musical genius behind the movie is Johnny Marks, a songwriter who had earlier written the song "Rudolph the Red-Nosed Reindeer" as well as holiday favorites like "Rockin' Around the Christmas Tree" (which is featured in a medley here). His songs, in the hands of musical director Maury Laws, simply sparkle with Christmas magic. The second half of the soundtrack features instrumental versions of the songs, featuring the Decca Concert Orchestra conducted by Herbert Rehbein. The instrumentals keep the holiday spirit flowing, but it's the equivalent of a long musical intermission (in other words, you'll probably find yourself straightening out candy canes on the tree before long). Few soundtracks hold as many happy memories or contain as much Christmas spirit as Rudolph the Red-Nosed Reindeer. Hardcore fans (who number more than a few) can also purchase the film in DVD format or check out a book from Rick Goldschmit that chronicles the making of the film (with lots of fascinating facts about the film's history). Reviewed by Dave Connolly of allmusic.com ”


Exact Audio Copy V1.0 beta 2 from 29. April 2011

EAC extraction logfile from 9. December 2015, 0:04

Various Artists / Rudolph The Red-Nosed Reindeer (Original Soundtrack)

Used drive : HL-DT-STDVDRAM GH60N Adapter: 0 ID: 1

Read mode : Secure
Utilize accurate stream : Yes
Defeat audio cache : Yes
Make use of C2 pointers : No

Read offset correction : 667
Overread into Lead-In and Lead-Out : No
Fill up missing offset samples with silence : Yes
Delete leading and trailing silent blocks : No
Null samples used in CRC calculations : Yes
Used interface : Native Win32 interface for Win NT & 2000

Used output format : User Defined Encoder
Selected bitrate : 1024 kBit/s
Quality : High
Add ID3 tag : No
Command line compressor : C:Program Files (x86)Exact Audio CopyFlacflac.exe
Additional command line options : -V -0 -T "artist=%albumartist%" -T "title=%title%" -T "album=%albumtitle%" -T "date=%year%" -T "genre=%genre%" -T "tracknumber=%tracknr%" %source%


TOC of the extracted CD

Track | Start | Length | Start sector | End sector
---------------------------------------------------------
1 | 0:00.00 | 2:28.20 | 0 | 11119
2 | 2:28.20 | 1:16.72 | 11120 | 16891
3 | 3:45.17 | 1:36.71 | 16892 | 24162
4 | 5:22.13 | 1:51.00 | 24163 | 32487
5 | 7:13.13 | 1:24.32 | 32488 | 38819
6 | 8:37.45 | 1:46.43 | 38820 | 46812
7 | 10:24.13 | 2:25.08 | 46813 | 57695
8 | 12:49.21 | 1:22.62 | 57696 | 63907
9 | 14:12.08 | 1:22.63 | 63908 | 70120
10 | 15:34.71 | 3:21.45 | 70121 | 85240
11 | 18:56.41 | 1:54.27 | 85241 | 93817
12 | 20:50.68 | 2:26.50 | 93818 | 104817
13 | 23:17.43 | 2:14.36 | 104818 | 114903
14 | 25:32.04 | 1:23.03 | 114904 | 121131
15 | 26:55.07 | 2:26.70 | 121132 | 132151
16 | 29:22.02 | 1:13.04 | 132152 | 137630
17 | 30:35.06 | 2:26.38 | 137631 | 148618
18 | 33:01.44 | 1:35.44 | 148619 | 155787
19 | 34:37.13 | 1:41.64 | 155788 | 163426


Range status and errors

Selected range

Filename C:EACVarious Artists - Rudolph The Red-Nosed Reindeer (Original Soundtrack Of A Videocraft TV Musical Spectacular) (1964) [2012 MCA]Various Artists - Rudolph The Red-Nosed Reindeer (Original Soundtrack).wav

Peak level 78.8 %
Extraction speed 1.9 X
Range quality 100.0 %
Test CRC 9423D537
Copy CRC 9423D537
Copy OK

No errors occurred


AccurateRip summary

Track 1 accurately ripped (confidence 38) [438C35FB] (AR v2)
Track 2 accurately ripped (confidence 38) [60C6384C] (AR v2)
Track 3 accurately ripped (confidence 38) [6D8DF0E7] (AR v2)
Track 4 accurately ripped (confidence 38) [75DAA2F3] (AR v2)
Track 5 accurately ripped (confidence 38) [47E2A655] (AR v2)
Track 6 accurately ripped (confidence 38) [EAE85DDC] (AR v2)
Track 7 accurately ripped (confidence 38) [3A37D155] (AR v2)
Track 8 accurately ripped (confidence 38) [09A0031D] (AR v2)
Track 9 accurately ripped (confidence 38) [FA95C830] (AR v2)
Track 10 accurately ripped (confidence 38) [8C9B4639] (AR v2)
Track 11 accurately ripped (confidence 38) [6BA1477C] (AR v2)
Track 12 accurately ripped (confidence 38) [474A3503] (AR v2)
Track 13 accurately ripped (confidence 38) [CED2B805] (AR v2)
Track 14 accurately ripped (confidence 38) [B0C4C91D] (AR v2)
Track 15 accurately ripped (confidence 38) [31B19E63] (AR v2)
Track 16 accurately ripped (confidence 37) [EB546629] (AR v2)
Track 17 accurately ripped (confidence 38) [2B4C3EDF] (AR v2)
Track 18 accurately ripped (confidence 37) [47164C56] (AR v2)
Track 19 accurately ripped (confidence 37) [CE9C5C94] (AR v2)

All tracks accurately ripped

End of status report

==== Log checksum 3B73AB5D50D6E33D81E728CEDBFD1ED62D4916CB233475B2ED4207B2EEFA6D27 ====



Track Listings:


Original TV Soundtrack

01. Overture And A Holly Jolly Christmas - Burl Ives
02. Jingle Jingle Jingle - Stan Francis
03. We Are Santa's Elves - Santa's Elves
04. There's Always Tomorrow - Janis Orenstein
05. We're A Couple Of Misfits - Billie Mae Richards And Paul Soles
06. Silver And Gold - Burl Ives
07. The Most Wonderful Day Of The Year - Misfit Toys
08. A Holly Jolly Christmas - Burl Ives
09. Rudolph The Red-Nosed Reindeer (Finale) - Burl Ives


Instrumental Version by the Decca Concert Orchestra (Herbert Rehbein)

10. Christmas Medley
11. Rudolph The Red-Nosed Reindeer
12. There's Always Tomorrow
13. Jingle Jingle Jingle
14. We're A Couple Of Misfits
15. Silver And Gold
16. We Are Santa's Elves
17. The Most Wonderful Day Of The Year
18. A Holly Jolly Christmas
19. I Heard The Bells On Christmas Day


Voices and Personnel:

Burl Ives – voice of Sam the Snowman ("A Holly Jolly Christmas," "Silver and Gold," "Rudolph the Red-Nosed Reindeer")
Stan Francis – voice of Santa Claus ("Jingle, Jingle, Jingle")
Janis Orenstein – voice of Clarice ("There's Always Tomorrow")
Billie Mae Richards – voice of Rudolph ("We're A Couple Of Misfits")
Paul Soles – voice of Hermey ("We're A Couple Of Misfits")
Maury Laws – musical director of the Videocraft TV Musical
Decca Concert Orchestra (side B instrumentals)
Herbert Rehbein – conductor, Decca Concert Orchestra


Album Released: December 13, 1964
MCA Records 1995 Remaster Re-released: September 18, 2012


foobar2000 1.3.2 / Dynamic Range Meter 1.1.0
log date: 2015-12-12 17:18:51

--------------------------------------------------------------------------------
Analyzed: Burl Ives (Maury Laws) / Rudolph The Red-Nosed Reindeer (Original Soundtrack) (1)
Stan Francis (Maury Laws) / Rudolph The Red-Nosed Reindeer (Original Soundtrack) (2)
Santa's Elves (Maury Laws) / Rudolph The Red-Nosed Reindeer (Original Soundtrack) (3)
Janis Orenstein (Maury Laws) / Rudolph The Red-Nosed Reindeer (Original Soundtrack) (4)
Billie Mae Richards And Paul Soles (Maury Laws) / Rudolph The Red-Nosed Reindeer (Original Soundtrack) (5)
Burl Ives (Maury Laws) / Rudolph The Red-Nosed Reindeer (Original Soundtrack) (6)
Misfit Toys (Maury Laws) / Rudolph The Red-Nosed Reindeer (Original Soundtrack) (7)
Burl Ives (Maury Laws) / Rudolph The Red-Nosed Reindeer (Original Soundtrack) (8-9)
Decca Concert Orchestra (Herbert Rehbein) / Rudolph The Red-Nosed Reindeer (Original Soundtrack) (10-19)
--------------------------------------------------------------------------------

DR Peak RMS Duration Track
--------------------------------------------------------------------------------
DR12 -3.85 dB -18.57 dB 2:28 01-Overture And A Holly Jolly Christmas
DR9 -6.60 dB -18.12 dB 1:17 02-Jingle Jingle Jingle
DR11 -3.33 dB -17.43 dB 1:37 03-We Are Santa's Elves
DR9 -6.93 dB -18.13 dB 1:51 04-There's Always Tomorrow
DR11 -6.62 dB -18.87 dB 1:24 05-We're A Couple Of Misfits
DR10 -5.45 dB -18.23 dB 1:47 06-Silver And Gold
DR10 -4.20 dB -17.26 dB 2:25 07-The Most Wonderful Day Of The Year
DR10 -2.92 dB -16.62 dB 1:23 08-A Holly Jolly Christmas
DR11 -2.90 dB -17.68 dB 1:23 09-Rudolph The Red-Nosed Reindeer (Finale)
DR15 -2.16 dB -21.17 dB 3:22 10-Christmas Medley
DR12 -2.37 dB -19.66 dB 1:54 11-Rudolph The Red-Nosed Reindeer
DR10 -4.18 dB -20.14 dB 2:27 12-There's Always Tomorrow
DR11 -4.46 dB -20.35 dB 2:14 13-Jingle Jingle Jingle
DR14 -2.06 dB -21.90 dB 1:23 14-We're A Couple Of Misfits
DR10 -7.03 dB -22.56 dB 2:27 15-Silver And Gold
DR14 -3.32 dB -21.87 dB 1:13 16-We Are Santa's Elves
DR14 -2.30 dB -21.41 dB 2:27 17-The Most Wonderful Day Of The Year
DR13 -3.96 dB -21.48 dB 1:36 18-A Holly Jolly Christmas
DR10 -3.96 dB -19.81 dB 1:42 19-I Heard The Bells On Christmas Day
--------------------------------------------------------------------------------

Number of tracks: 19
Official DR value: DR11

Samplerate: 44100 Hz
Channels: 2
Bits per sample: 16
Bitrate: 790 kbps
Codec: FLAC
================================================================================




5% WinRar Recovery
If you experience any problems or broken links, PLEASE SEND PM to flac jacket.
Oboom

| |