Вход в свой аккаунт

Или войдите через соц. сети

African Head Charge - Songs Of Praise (1990)


African Head Charge - Songs Of Praise (1990)
EAC | FLAC | Tracks (Cue&Log) ~ 404 Mb (incl 5%) | Mp3 (CBR320) ~ 188 Mb (incl 5%) | Scans included
Genre: Psychedelic Dub, Reggae | Label: On-U Sound | # ON-U CD12 | Time: 00:59:19

“ Not very many reggae albums acknowledge Alan Lomax in the credits. But then, African Head Charge (a band with a constantly changing membership led by percussionist Bonjo Iyabinghi Noah) doesn't really make typical reggae albums. Although the one-drop beat (provided on this album by Lincoln "Style" Scott) influences everything and the basslines have a typical tidal undertow, the stuff that Noah layers on top of the mix has more to do with ethnomusicology than the dancehall. The song titles say it all: "Cattle Herders Chant," a field recording of call-and-response chanting overlaid with Nyahbinghi drums and highlife guitar; "My God," eerie, minor-key African-American church singing supported by a chugging reggae bassline, bare-bones drumming, and the sound of running water; "Deer Spirit Song," an unidentifiable indigenous song in 9/8 meter with a gently driving rockers beat and occasional sound effects thrown in. This is an exceptionally beautiful album, but in a deeply strange way.

Review by Rick Anderson, Allmusic.com
”







Tracklist:

01. Free Chant (Churchical Chant Of The Iyabinghi) (03:34)
02. Orderliness, Godliness, Discipline And Dignity (03:20)
03. Hymn (05:43)
04. Dervish Chant (07:45)
05. Hold Some More (06:20)
06. Healing Father (04:47)
07. Healing Ceremony (03:53)
08. Cattle Herders Chant (04:17)
09. Ethiopian Praises (01:27)
10. My God (04:13)
11. Gospel Train (03:03)
12. Chant For The Spirits (04:09)
13. God Is Great (04:18)
14. Deer Spirit Song (02:22)


Exact Audio Copy V1.0 beta 4 from 7. December 2014

EAC extraction logfile from 24. October 2015, 21:16

African Head Charge / Songs Of Praise

Used drive : TSSTcorpCDDVDW SH-224DB Adapter: 1 ID: 0

Read mode : Secure
Utilize accurate stream : Yes
Defeat audio cache : Yes
Make use of C2 pointers : No

Read offset correction : 6
Overread into Lead-In and Lead-Out : No
Fill up missing offset samples with silence : Yes
Delete leading and trailing silent blocks : No
Null samples used in CRC calculations : Yes
Used interface : Native Win32 interface for Win NT & 2000
Gap handling : Appended to previous track

Used output format : User Defined Encoder
Selected bitrate : 896 kBit/s
Quality : High
Add ID3 tag : No
Command line compressor : C:Program FilesExact Audio CopyFlacflac.exe
Additional command line options : -6 -V -T "ARTIST=%artist%" -T "TITLE=%title%" -T "ALBUM=%albumtitle%" -T "DATE=%year%" -T "TRACKNUMBER=%tracknr%" -T "GENRE=%genre%" -T "COMMENT=%comment%" %source% -o %dest%


TOC of the extracted CD

Track | Start | Length | Start sector | End sector
---------------------------------------------------------
1 | 0:00.33 | 3:34.40 | 33 | 16122
2 | 3:34.73 | 3:20.42 | 16123 | 31164
3 | 6:55.40 | 5:43.43 | 31165 | 56932
4 | 12:39.08 | 7:45.40 | 56933 | 91847
5 | 20:24.48 | 6:20.47 | 91848 | 120394
6 | 26:45.20 | 4:47.08 | 120395 | 141927
7 | 31:32.28 | 3:53.17 | 141928 | 159419
8 | 35:25.45 | 4:17.55 | 159420 | 178749
9 | 39:43.25 | 1:27.65 | 178750 | 185339
10 | 41:11.15 | 4:13.58 | 185340 | 204372
11 | 45:24.73 | 3:03.62 | 204373 | 218159
12 | 48:28.60 | 4:09.35 | 218160 | 236869
13 | 52:38.20 | 4:18.30 | 236870 | 256249
14 | 56:56.50 | 2:22.58 | 256250 | 266957


Track 1

Filename C:New Folder1 - Free Chant (Churchical Chant Of The Iyabinghi).wav

Pre-gap length 0:00:02.33

Peak level 91.9 %
Extraction speed 2.0 X
Track quality 100.0 %
Test CRC 01BA4C0C
Copy CRC 01BA4C0C
Accurately ripped (confidence 6) [3C1B4681] (AR v2)
Copy OK

Track 2

Filename C:New Folder2 - Orderliness, Godliness, Discipline And Dignity.wav

Pre-gap length 0:00:00.03

Peak level 97.7 %
Extraction speed 1.9 X
Track quality 100.0 %
Test CRC 8FCF9A0C
Copy CRC 8FCF9A0C
Accurately ripped (confidence 6) [24B664F6] (AR v2)
Copy OK

Track 3

Filename C:New Folder3 - Hymn.wav

Pre-gap length 0:00:00.02

Peak level 99.9 %
Extraction speed 2.1 X
Track quality 100.0 %
Test CRC 9F23408F
Copy CRC 9F23408F
Accurately ripped (confidence 6) [8E698716] (AR v2)
Copy OK

Track 4

Filename C:New Folder4 - Dervish Chant.wav

Pre-gap length 0:00:00.03

Peak level 93.3 %
Extraction speed 2.2 X
Track quality 100.0 %
Test CRC 0E323872
Copy CRC 0E323872
Accurately ripped (confidence 6) [F26E075E] (AR v2)
Copy OK

Track 5

Filename C:New Folder5 - Hold Some More.wav

Pre-gap length 0:00:00.03

Peak level 97.4 %
Extraction speed 2.2 X
Track quality 100.0 %
Test CRC D17FBA31
Copy CRC D17FBA31
Accurately ripped (confidence 6) [37505887] (AR v2)
Copy OK

Track 6

Filename C:New Folder6 - Healing Father.wav

Pre-gap length 0:00:00.02

Peak level 92.4 %
Extraction speed 2.1 X
Track quality 100.0 %
Test CRC 8B9BE2F1
Copy CRC 8B9BE2F1
Accurately ripped (confidence 6) [30B3EFFB] (AR v2)
Copy OK

Track 7

Filename C:New Folder7 - Healing Ceremony.wav

Pre-gap length 0:00:00.03

Peak level 98.3 %
Extraction speed 2.0 X
Track quality 100.0 %
Test CRC 8A8EE103
Copy CRC 8A8EE103
Accurately ripped (confidence 6) [6500E9F1] (AR v2)
Copy OK

Track 8

Filename C:New Folder8 - Cattle Herders Chant.wav

Pre-gap length 0:00:00.02

Peak level 98.2 %
Extraction speed 2.1 X
Track quality 100.0 %
Test CRC 57CF5F38
Copy CRC 57CF5F38
Accurately ripped (confidence 6) [D55ADC01] (AR v2)
Copy OK

Track 9

Filename C:New Folder9 - Ethiopian Praises.wav

Pre-gap length 0:00:00.02

Peak level 43.0 %
Extraction speed 1.6 X
Track quality 100.0 %
Test CRC 1774A3CB
Copy CRC 1774A3CB
Accurately ripped (confidence 6) [931EC072] (AR v2)
Copy OK

Track 10

Filename C:New Folder10 - My God.wav

Pre-gap length 0:00:00.02

Peak level 72.7 %
Extraction speed 2.1 X
Track quality 100.0 %
Test CRC DC58B4D4
Copy CRC DC58B4D4
Accurately ripped (confidence 6) [4923537F] (AR v2)
Copy OK

Track 11

Filename C:New Folder11 - Gospel Train.wav

Pre-gap length 0:00:00.03

Peak level 74.6 %
Extraction speed 1.9 X
Track quality 100.0 %
Test CRC 91274004
Copy CRC 91274004
Accurately ripped (confidence 6) [BC56766E] (AR v2)
Copy OK

Track 12

Filename C:New Folder12 - Chant For The Spirits.wav

Pre-gap length 0:00:00.02

Peak level 100.0 %
Extraction speed 2.1 X
Track quality 100.0 %
Test CRC 295739D2
Copy CRC 295739D2
Accurately ripped (confidence 5) [20871030] (AR v2)
Copy OK

Track 13

Filename C:New Folder13 - God Is Great.wav

Pre-gap length 0:00:00.02

Peak level 69.8 %
Extraction speed 2.1 X
Track quality 100.0 %
Test CRC A6493703
Copy CRC A6493703
Accurately ripped (confidence 5) [0B2FD2ED] (AR v2)
Copy OK

Track 14

Filename C:New Folder14 - Deer Spirit Song.wav

Pre-gap length 0:00:00.02

Peak level 86.8 %
Extraction speed 1.6 X
Track quality 99.9 %
Test CRC B5AC9E3F
Copy CRC B5AC9E3F
Accurately ripped (confidence 5) [2672E17E] (AR v2)
Copy OK


All tracks accurately ripped

No errors occurred

End of status report

---- CUETools DB Plugin V2.1.4

[CTDB TOCID: MdIDdWWDh.MHq6eGOLzVisugGGE-] found
Submit result: MdIDdWWDh.MHq6eGOLzVisugGGE- has been confirmed
Track | CTDB Status
1 | (5/6) Accurately ripped
2 | (5/6) Accurately ripped
3 | (5/6) Accurately ripped
4 | (5/6) Accurately ripped
5 | (5/6) Accurately ripped
6 | (5/6) Accurately ripped
7 | (5/6) Accurately ripped
8 | (5/6) Accurately ripped
9 | (5/6) Accurately ripped
10 | (5/6) Accurately ripped
11 | (5/6) Accurately ripped
12 | (5/6) Accurately ripped
13 | (5/6) Accurately ripped
14 | (5/6) Accurately ripped


==== Log checksum 6D54A487A763F64AA9CA2359DE5218D73D61008F75ED1E9856585307D2C30EAF ====

foobar2000 1.2 / Dynamic Range Meter 1.1.1
log date: 2015-12-14 18:39:13

--------------------------------------------------------------------------------
Analyzed: African Head Charge / Songs Of Praise
--------------------------------------------------------------------------------

DR Peak RMS Duration Track
--------------------------------------------------------------------------------
DR14 -0.73 dB -17.51 dB 3:35 01-Free Chant (Churchical Chant Of The Iyabinghi)
DR14 -0.20 dB -16.03 dB 3:21 02-Orderliness, Godliness, Discipline And Dignity
DR12 0.00 dB -14.25 dB 5:44 03-Hymn
DR15 -0.59 dB -17.39 dB 7:46 04-Dervish Chant
DR14 -0.22 dB -16.40 dB 6:21 05-Hold Some More
DR16 -0.69 dB -17.95 dB 4:47 06-Healing Father
DR16 -0.14 dB -18.32 dB 3:53 07-Healing Ceremony
DR16 -0.15 dB -18.28 dB 4:18 08-Cattle Herders Chant
DR13 -7.33 dB -25.54 dB 1:28 09-Ethiopian Praises
DR13 -2.77 dB -16.53 dB 4:14 10-My God
DR10 -2.54 dB -15.35 dB 3:04 11-Gospel Train
DR16 0.00 dB -18.71 dB 4:09 12-Chant For The Spirits
DR12 -3.11 dB -18.57 dB 4:18 13-God Is Great
DR14 -1.23 dB -17.33 dB 2:23 14-Deer Spirit Song
--------------------------------------------------------------------------------

Number of tracks: 14
Official DR value: DR14

Samplerate: 44100 Hz
Channels: 2
Bits per sample: 16
Bitrate: 753 kbps
Codec: FLAC
================================================================================



All thanks to original releaser - alekow