Вход в свой аккаунт

Или войдите через соц. сети

Grace Jones - Nightclubbing (1981)


Grace Jones - Nightclubbing (1981)
XLD | FLAC | Image (Cue&Log) ~ 261 Mb (incl 5%) | Mp3 (CBR320) ~ 114 Mb (incl 5%) | Scans included
Genre: New Wave, Synth-Pop, Funk, Dub, Post-Disco | Label: Island | # 253 481, CID 9624 (90 093-2) | Time: 00:38:12

“ By all means a phenomenal pop album that hit number nine on the black albums chart and crossed over to penetrate the pop charts at number 32, Nightclubbing saw Grace Jones working once again with Sly Dunbar, Robbie Shakespeare, and the remainder of the Compass Point team. Nightclubbing also continues Jones' tradition of picking excellent songs to reinterpret. This time out, the Police's "Demolition Man," Bill Withers' "Use Me," and Iggy Pop's "Nightclubbing" receive radical reinterpretations; "Nightclubbing" is glacial in both tempo and lack of warmth, while both "Use Me" and "Demolition Man" fit perfectly into Jones' lyrical scheme. Speaking of a lyrical scheme, "Pull Up to the Bumper" (number five black singles, number two club play) is so riddled with naughty double entendres -- or is it just about parallel parking? -- that it renders Musique's "In the Bush" as daring as Paul Anka's "Puppy Love." Drive it in between what, Grace? It's not just lyrics that make the song stick out; jingling spirals of rhythm guitar and a simplistic, squelching, mid-tempo rhythm make the song effective, even without considering Jones' presence. Sly & Robbie provide ideal backdrops for Jones yet again, casting a brisk but not bristly sheen over buoyant structures. Never before and never since has a precisely chipped block of ore been so seductive.

Review by Andy Kellman, Allmusic.com
”






Tracklist:

01. Walking in the Rain (04:18)
02. Pull Up to the Bumper (04:41)
03. Use Me (05:04)
04. Nightclubbing (05:05)
05. Art Groupie (02:39)
06. I've Seen That Face Before (Libertango) (04:28)
07. Feel Up (04:01)
08. Demolition Man (04:02)
09. I've Done It Again (03:49)


X Lossless Decoder version 20151128 (149.0)

XLD extraction logfile from 2015-12-05 17:22:13 +0300

Grace Jones / Nightclubbing (253 481)

Used drive : HL-DT-ST DVDRAM GE20NU11 (revision CN01)
Media type : Pressed CD

Ripper mode : XLD Secure Ripper
Disable audio cache : OK for the drive with a cache less than 1375KiB
Make use of C2 pointers : NO
Read offset correction : 667
Max retry count : 20
Gap status : Analyzed, Appended

TOC of the extracted CD
Track | Start | Length | Start sector | End sector
---------------------------------------------------------
1 | 00:00:00 | 04:18:55 | 0 | 19404
2 | 04:18:55 | 04:41:37 | 19405 | 40516
3 | 09:00:17 | 05:04:60 | 40517 | 63376
4 | 14:05:02 | 05:05:08 | 63377 | 86259
5 | 19:10:10 | 02:39:05 | 86260 | 98189
6 | 21:49:15 | 04:28:65 | 98190 | 118354
7 | 26:18:05 | 04:01:57 | 118355 | 136486
8 | 30:19:62 | 04:02:68 | 136487 | 154704
9 | 34:22:55 | 03:49:62 | 154705 | 171941

AccurateRip Summary (DiscID: 000d9196-0062ab98-5d08f409)
Track 01 : OK (v1+v2, confidence 66/66)
Track 02 : OK (v1+v2, confidence 65/65)
Track 03 : OK (v1+v2, confidence 64/64)
Track 04 : OK (v1+v2, confidence 65/65)
Track 05 : OK (v1+v2, confidence 65/65)
Track 06 : OK (v1+v2, confidence 64/64)
Track 07 : OK (v1+v2, confidence 64/64)
Track 08 : OK (v1+v2, confidence 63/63)
Track 09 : OK (v1+v2, confidence 65/65)
->All tracks accurately ripped.

All Tracks
Filename : /OdW/Grace Jones (1981) Nightclubbing (253 481)/Grace Jones - Nightclubbing (253 481).flac
Album gain : -1.98 dB
Peak : 0.999969
CRC32 hash (test run) : 8B6185BA
CRC32 hash : 8B6185BA
CRC32 hash (skip zero) : 392626CD
Statistics
Read error : 0
Jitter error (maybe fixed) : 0
Retry sector count : 0
Damaged sector count : 0

Track 01
Pre-gap length : 00:02:00

Track gain : -0.65 dB
Peak : 0.938629
CRC32 hash (test run) : 1BB7736B
CRC32 hash : 1BB7736B
CRC32 hash (skip zero) : C7AC25BE
AccurateRip v1 signature : 9114D0A1
AccurateRip v2 signature : 59418689
->Accurately ripped (v1+v2, confidence 28+38/66)
Statistics
Read error : 0
Jitter error (maybe fixed) : 0
Retry sector count : 0
Damaged sector count : 0

Track 02

Track gain : -4.10 dB
Peak : 0.999969
CRC32 hash (test run) : 3C4F5C3B
CRC32 hash : 3C4F5C3B
CRC32 hash (skip zero) : 439D5EDA
AccurateRip v1 signature : 966F10D7
AccurateRip v2 signature : 6F8C3218
->Accurately ripped (v1+v2, confidence 27+38/65)
Statistics
Read error : 0
Jitter error (maybe fixed) : 0
Retry sector count : 0
Damaged sector count : 0

Track 03

Track gain : -3.16 dB
Peak : 0.990448
CRC32 hash (test run) : CA1AC3A9
CRC32 hash : CA1AC3A9
CRC32 hash (skip zero) : D0E5CB33
AccurateRip v1 signature : 8F3CE609
AccurateRip v2 signature : 7E66C249
->Accurately ripped (v1+v2, confidence 26+38/64)
Statistics
Read error : 0
Jitter error (maybe fixed) : 0
Retry sector count : 0
Damaged sector count : 0

Track 04

Track gain : 0.19 dB
Peak : 0.999969
CRC32 hash (test run) : 8844E2F0
CRC32 hash : 8844E2F0
CRC32 hash (skip zero) : C3EC2DAD
AccurateRip v1 signature : 0FCFC412
AccurateRip v2 signature : 76E103B5
->Accurately ripped (v1+v2, confidence 27+38/65)
Statistics
Read error : 0
Jitter error (maybe fixed) : 0
Retry sector count : 0
Damaged sector count : 0

Track 05

Track gain : -0.03 dB
Peak : 0.706238
CRC32 hash (test run) : DE778D39
CRC32 hash : DE778D39
CRC32 hash (skip zero) : 69CB87AA
AccurateRip v1 signature : 5292A26E
AccurateRip v2 signature : 85F7377E
->Accurately ripped (v1+v2, confidence 27+38/65)
Statistics
Read error : 0
Jitter error (maybe fixed) : 0
Retry sector count : 0
Damaged sector count : 0

Track 06

Track gain : 2.35 dB
Peak : 0.791748
CRC32 hash (test run) : 4C487637
CRC32 hash : 4C487637
CRC32 hash (skip zero) : 148EED46
AccurateRip v1 signature : 04B964A8
AccurateRip v2 signature : 0ED9E55A
->Accurately ripped (v1+v2, confidence 27+37/64)
Statistics
Read error : 0
Jitter error (maybe fixed) : 0
Retry sector count : 0
Damaged sector count : 0

Track 07

Track gain : -1.88 dB
Peak : 0.868988
CRC32 hash (test run) : 69FF2820
CRC32 hash : 69FF2820
CRC32 hash (skip zero) : 9F4BAE0B
AccurateRip v1 signature : E55A5CE8
AccurateRip v2 signature : 2EDAEFAF
->Accurately ripped (v1+v2, confidence 26+38/64)
Statistics
Read error : 0
Jitter error (maybe fixed) : 0
Retry sector count : 0
Damaged sector count : 0

Track 08

Track gain : -3.30 dB
Peak : 0.675934
CRC32 hash (test run) : 1B26AEFC
CRC32 hash : 1B26AEFC
CRC32 hash (skip zero) : 706F6A97
AccurateRip v1 signature : BBDBCA4B
AccurateRip v2 signature : EF55FFAC
->Accurately ripped (v1+v2, confidence 25+38/63)
Statistics
Read error : 0
Jitter error (maybe fixed) : 0
Retry sector count : 0
Damaged sector count : 0

Track 09

Track gain : 3.03 dB
Peak : 0.606934
CRC32 hash (test run) : 75122F71
CRC32 hash : 75122F71
CRC32 hash (skip zero) : A0C1EE56
AccurateRip v1 signature : 9E068826
AccurateRip v2 signature : BEB60289
->Accurately ripped (v1+v2, confidence 27+38/65)
Statistics
Read error : 0
Jitter error (maybe fixed) : 0
Retry sector count : 0
Damaged sector count : 0

No errors occurred

End of status report

-----BEGIN XLD SIGNATURE-----
3gJzddX_._N72sSwoBLSd6rU4T9IyU_vVcq5otJzO_99HquE9oT7OQFO3VYGkQOegaiujPv5dLx7Hki5e1Tmcwxx0i7HMAzuKvzwMze
-----END XLD SIGNATURE-----

foobar2000 1.2 / Dynamic Range Meter 1.1.1
log date: 2015-12-15 04:50:05

--------------------------------------------------------------------------------
Analyzed: Grace Jones / Nightclubbing (253 481)
--------------------------------------------------------------------------------

DR Peak RMS Duration Track
--------------------------------------------------------------------------------
DR14 -0.55 dB -16.64 dB 4:19 01-Walking in the Rain
DR14 0.00 dB -16.45 dB 4:41 02-Pull Up to the Bumper
DR14 -0.08 dB -15.93 dB 5:05 03-Use Me
DR15 0.00 dB -17.80 dB 5:05 04-Nightclubbing
DR16 -3.02 dB -21.48 dB 2:39 05-Art Groupie
DR14 -2.03 dB -18.50 dB 4:29 06-I've Seen That Face Before (Libertango)
DR15 -1.22 dB -18.59 dB 4:02 07-Feel Up
DR11 -3.40 dB -17.53 dB 4:03 08-Demolition Man
DR13 -4.34 dB -20.73 dB 3:50 09-I've Done It Again
--------------------------------------------------------------------------------

Number of tracks: 9
Official DR value: DR14

Samplerate: 44100 Hz
Channels: 2
Bits per sample: 16
Bitrate: 834 kbps
Codec: FLAC
================================================================================



All thanks to original releaser - Olaf der Weisse