Sterling Koch - Rock Slide (2015)


Sterling Koch - Rock Slide (2015)
EAC Rip | FLAC (Img) + Cue + Log ~ 206 Mb | MP3 CBR320 ~ 83 Mb
Scans (JPG, 600 dpi) ~ 43 Mb | RAR 5% Recovery
Slide Guitar Blues | Full Force Music #FFM 121

This is the latest album, "Rock Slide," by internationally recognized lap steel guitarist Sterling Koch (pronounced "Cook") from Pottsville, PA. "RockSlide" is the follow up to his previous "Let It Slide" album released in 2013 and "Slide Ruler" album released in 2011 which featured legendary blues bassist Tommy Shannon (Stevie Ray Vaughan, Johnny Winter) and Grammy nominated drummer Chet McCracken (Doobie Brothers). The new album, "RockSlide" includes eight songs, seven originals and one cover, of varying blues/rock styles. The cover song, "Crossfire," is a song originally recorded by Stevie Ray Vaughan. Three of the originals were co-written with South Carolina lyricist Freida Gantt.
Sterling only began to play the lap steel in 2004 as the result of a neck injury, a herniated disk in his neck. He had previously played the conventional 6 string guitar for 35 years, Sterling specializes in playing Texas-style, blues-rock slide guitar on the lap steel. He is widely acclaimed as one of the foremost proponents of the lap steel guitar and magazines and newspapers around the world have recognized his mastery of the instrument.
Sterling has previously released 6 solo CDs of steel guitar blues music, "Place Your Bets," "Let It Slide," "Slide Ruler," "Steel Guitar Blues," "Steelin' Home" and "How I Spent My Summer Vacation" Sterling has had the support of the legendary steel guitarist Calvin Cooke (from the Slide Brothers and mentor to Robert Randolph of "Robert Randolph's Family Band") when first starting on lap steel and now can claim internationally known steel guitarists Darick Campbell, Aubrey Ghent (Slide Brothers) and Freddie Roulette as friends and mentors.
~ cdbaby.com


|

***************


Track List:

01. Shake 'Em On Down [04:27]
02. Sugar [03:44]
03. Good to Go [04:24]
04. Leavin' Me With the Blues [04:22]
05. Crossfire [05:43]
06. I'm Packin' Up [03:54]
07. Comin' for Your Love [03:38]
08. Last Call [04:11]

Exact Audio Copy V1.0 beta 3 from 29. August 2011

Отчёт EAC об извлечении, выполненном 12. декабря 2015, 22:18

Sterling Koch / Rock Slide

Дисковод: ATAPI iHAS424 A Adapter: 0 ID: 0

Режим чтения : Достоверность
Использование точного потока : Да
Отключение кэша аудио : Да
Использование указателей C2 : Нет

Коррекция смещения при чтении : 6
Способность читать области Lead-in и Lead-out : Нет
Заполнение пропущенных сэмплов тишиной : Да
Удаление блоков с тишиной в начале и конце : Нет
При вычислениях CRC использовались нулевые сэмплы : Да
Интерфейс : Установленный внешний ASPI-интерфейс

Выходной формат : Пользовательский кодировщик
Выбранный битрейт : 1024 kBit/s
Качество : Высокий
Добавление ID3-тега : Нет
Утилита сжатия : C:Program FilesExact Audio CopyFLACFLAC.EXE
Дополнительные параметры : -8 -V -T "ARTIST=%artist%" -T "ALBUM=%albumtitle%" -T "DATE=%year%" -T "GENRE=%genre%" -T "COMMENT=ripped by izia1956" %source%


TOC извлечённого CD

Трек | Старт | Длительность | Начальный сектор | Конечный сектор
---------------------------------------------------------------------
1 | 0:00.00 | 4:26.53 | 0 | 20002
2 | 4:26.53 | 3:43.22 | 20003 | 36749
3 | 8:10.00 | 4:23.64 | 36750 | 56538
4 | 12:33.64 | 4:21.50 | 56539 | 76163
5 | 16:55.39 | 5:42.64 | 76164 | 101877
6 | 22:38.28 | 3:53.06 | 101878 | 119358
7 | 26:31.34 | 3:37.64 | 119359 | 135697
8 | 30:09.23 | 4:10.65 | 135698 | 154512


Характеристики диапазона извлечения и сообщения об ошибках

Выбранный диапазон

Имя файла D:BitCometSterling Koch2015 - Rock SlideSterling Koch - Rock Slide.wav

Пиковый уровень 99.9 %
Скорость извлечения 5.4 X
Качество диапазона 100.0 %
CRC теста 00C92242
CRC копии 00C92242
Копирование... OK

Ошибок не произошло


AccurateRip: сводка

Трек 1 отсутствует в базе данных
Трек 2 отсутствует в базе данных
Трек 3 отсутствует в базе данных
Трек 4 отсутствует в базе данных
Трек 5 отсутствует в базе данных
Трек 6 отсутствует в базе данных
Трек 7 отсутствует в базе данных
Трек 8 отсутствует в базе данных

Ни одного трека нет в базе AccurateRip

Конец отчёта

==== Контрольная сумма отчёта 468B6811E9C2327391A06B5346D23C3B3CE34C3707CE17E8F822E0C4548CF514 ====

foobar2000 1.2.6 / Dynamic Range Meter 1.1.1
log date: 2015-12-15 18:13:38

--------------------------------------------------------------------------------
Analyzed: Sterling Koch / Rock Slide
--------------------------------------------------------------------------------

DR Peak RMS Duration Track
--------------------------------------------------------------------------------
DR8 -4.30 dB -13.81 dB 4:27 01-Shake 'Em On Down
DR8 -4.83 dB -14.09 dB 3:43 02-Sugar
DR9 -5.58 dB -15.55 dB 4:24 03-Good to Go
DR8 -4.30 dB -13.91 dB 4:22 04-Leavin' Me With the Blues
DR8 -4.83 dB -13.86 dB 5:43 05-Crossfire
DR8 -6.04 dB -14.59 dB 3:53 06-I'm Packin' Up
DR9 -5.32 dB -14.99 dB 3:38 07-Comin' for Your Love
DR8 0.00 dB -11.34 dB 4:11 08-Last Call
--------------------------------------------------------------------------------

Number of tracks: 8
Official DR value: DR8

Samplerate: 44100 Hz
Channels: 2
Bits per sample: 16
Bitrate: 796 kbps
Codec: FLAC
================================================================================

[CUETools log; Date: 15.12.2015 18:13:31; Version: 2.1.5]
[CTDB TOCID: Q.t34_8pFgfVPmptgf0a9cHbDLE-] disk not present in database.
[AccurateRip ID: 000ab1e8-00476a17-62080c08] disk not present in database.

Track Peak [ CRC32 ] [W/O NULL] [ LOG ]
-- 99,9 [00C92242] [E2B659BE] CRC32
01 60,9 [5874F538] [4979E24C]
02 57,3 [7F18F13E] [37E29B84]
03 52,6 [1627F080] [297A4574]
04 60,9 [73E3E338] [9D30703E]
05 57,3 [B669711C] [1D33EAD5]
06 49,8 [4D671740] [CE7EC21A]
07 54,1 [E68E977D] [DB1FAE55]
08 99,9 [0CBB8583] [EE83C33A]


See also:



All thanks go to izia1956



No mirrors, please!

Download: