Delta Goodrem - Innocent Eyes (2006) [Japan]


Delta Goodrem - Innocent Eyes (2006)
EAC Rip | FLAC (Img) + Cue + Log ~ 402 Mb | MP3 CBR320 ~ 136 Mb
Scans (JPG, 600 dpi) ~ 118 Mb | RAR 5% Recovery
Pop, Pop Rock, Ballad | Sony Music Japan International Inc. #SICP 1141

Innocent Eyes is a compilation album by Australian singer-songwriter Delta Goodrem, released only in Japan on 11 October 2006 through Sony Music Japan. The album comprises songs from her first two studio albums, Innocent Eyes and Mistaken Identity, as well as two new songs: "Never Fades Away" and "Flawed", which was released as a single.

Delta Lea Goodrem is an Australian singer-songwriter and actress. Born and raised in Sydney, New South Wales, she enrolled in dancing, acting, singing and piano classes at a young age. She began her career as a child actress, starring in various television shows and rose to prominence in 2002 in the Australian soap opera Neighbours as Nina Tucker.

Venturing into the music industry, Goodrem signed to Sony Music at the age of 15 and released her multi-platinum album Innocent Eyes (2003), which topped the Australian Albums Chart and reached number two on the UK Albums Chart. It became one of the highest-selling albums in Australian history, with over 4 million copies sold worldwide and all five of its singles; "Born to Try", "Lost Without You", "Innocent Eyes", "Not Me, Not I", and "Predictable" reaching number one in Australia and the first three reaching the top ten in the UK. This gave her the record for becoming the first ever artist to have five number one singles from a debut album. As of the early 2010s, Goodrem holds the Australian record for the highest-selling album of the last decade (Innocent Eyes) and the most number one singles from a debut album.

Each of Goodrem's subsequent albums followed with similar commercial success on the ARIA Albums Chart. Her second studio album, Mistaken Identity (2004), was created while she was suffering from cancer (and several of its themes reflect this) and became her second consequent number one album. In 2007, Goodrem released Delta, her third number one album and in 2012, she released her fourth studio album Child of the Universe which reached number two. Goodrem has a total of 16 top ten hits, including "Out of the Blue", "Mistaken Identity", "Together We Are One", "In This Life", "Believe Again", "Sitting on Top of the World", "Wish You Were Here", "Heart Hypnotic" and "Wings". Goodrem has achieved nine number one singles and three number one albums in her home country. She has won three World Music Awards, ten ARIA Music Awards, a MTV Video Music Award and among several other awards. From 2012 to 2013, she served as a coach on The Voice Australia, and won The Voice Kids Australia in 2014. She returned to The Voice Australia in 2015.
~ Wiki

| | |

***************


Track List:

01. Born To Try [04:16]
02. Lost Without You [04:11]
03. A Little Too Late [03:32]
04. Last Night On Earth [04:11]
05. Flawed [04:28]
06. Almost Here (Duet with Brian McFadden) [03:52]
07. Extraordinary Day [04:18]
08. Innocent Eyes [03:55]
09. Not Me, Not I [04:28]
10. Never Fades Away [03:37]
11. Predictable [03:41]
12. My Big Mistake [03:45]
13. Be Strong [04:04]
14. Out Of The Blue [04:24]

Exact Audio Copy V1.0 beta 6 from 9. April 2015

Отчёт EAC об извлечении, выполненном 7. декабря 2015, 23:09

Delta Goodrem / Innocent Eyes

Дисковод: SlimtypeDVD A DS8A9SH Adapter: 1 ID: 0

Режим чтения : Достоверность
Использование точного потока : Да
Отключение кэша аудио : Да
Использование указателей C2 : Нет

Коррекция смещения при чтении : 6
Способность читать области Lead-in и Lead-out : Нет
Заполнение пропущенных сэмплов тишиной : Да
Удаление блоков с тишиной в начале и конце : Нет
При вычислениях CRC использовались нулевые сэмплы : Да
Интерфейс : Встроенный Win32-интерфейс для Win NT/2000

Выходной формат : Пользовательский кодировщик
Выбранный битрейт : 128 kBit/s
Качество : Высокий
Добавление ID3-тега : Нет
Утилита сжатия : D:Program Files (x86)Exact Audio CopyFlacflac.exe
Дополнительные параметры : -V -8 -T "Date=%year%" -T "Genre=%genre%" %source%


TOC извлечённого CD

Трек | Старт | Длительность | Начальный сектор | Конечный сектор
---------------------------------------------------------------------
1 | 0:00.00 | 4:15.29 | 0 | 19153
2 | 4:15.29 | 4:10.71 | 19154 | 37974
3 | 8:26.25 | 3:31.28 | 37975 | 53827
4 | 11:57.53 | 4:10.03 | 53828 | 72580
5 | 16:07.56 | 4:27.15 | 72581 | 92620
6 | 20:34.71 | 3:51.03 | 92621 | 109948
7 | 24:25.74 | 4:17.69 | 109949 | 129292
8 | 28:43.68 | 3:54.54 | 129293 | 146896
9 | 32:38.47 | 4:27.57 | 146897 | 166978
10 | 37:06.29 | 3:36.74 | 166979 | 183252
11 | 40:43.28 | 3:40.07 | 183253 | 199759
12 | 44:23.35 | 3:44.59 | 199760 | 216618
13 | 48:08.19 | 4:03.18 | 216619 | 234861
14 | 52:11.37 | 4:23.66 | 234862 | 254652


Характеристики диапазона извлечения и сообщения об ошибках

Выбранный диапазон

Имя файла D:My RipsAudioDelta Goodrem - 2006 - Innocent Eyes [Japan, SICP 1141]Delta Goodrem - Innocent Eyes.wav

Пиковый уровень 99.8 %
Скорость извлечения 4.4 X
Качество диапазона 99.9 %
CRC теста BAB926D5
CRC копии BAB926D5
Копирование... OK

Ошибок не произошло


AccurateRip: сводка

Трек 1 : извлечено точно (доверие 5) [9DFA82ED] (AR v2)
Трек 2 : извлечено точно (доверие 5) [20D24EB1] (AR v2)
Трек 3 : извлечено точно (доверие 5) [E552F639] (AR v2)
Трек 4 : извлечено точно (доверие 5) [3E1B30D2] (AR v2)
Трек 5 : извлечено точно (доверие 10) [B43184C0] (AR v2)
Трек 6 : извлечено точно (доверие 5) [141A5F1E] (AR v2)
Трек 7 : извлечено точно (доверие 5) [BFD8D486] (AR v2)
Трек 8 : извлечено точно (доверие 5) [D99AEAA0] (AR v2)
Трек 9 : извлечено точно (доверие 5) [D04371EA] (AR v2)
Трек 10 : извлечено точно (доверие 10) [D0E756E2] (AR v2)
Трек 11 : извлечено точно (доверие 5) [500360EA] (AR v2)
Трек 12 : извлечено точно (доверие 5) [74246346] (AR v2)
Трек 13 : извлечено точно (доверие 5) [4100834B] (AR v2)
Трек 14 : извлечено точно (доверие 5) [E2C213E4] (AR v2)

Все треки извлечены точно

Конец отчёта

==== Контрольная сумма отчёта 579D6DBB43163378F5830697775C4C0431A7AF472C26E88E3F3AE761CC54235A ====

foobar2000 1.2.6 / Dynamic Range Meter 1.1.1
log date: 2015-12-11 15:55:08

--------------------------------------------------------------------------------
Analyzed: Delta Goodrem / Innocent Eyes
--------------------------------------------------------------------------------

DR Peak RMS Duration Track
--------------------------------------------------------------------------------
DR8 -0.01 dB -10.32 dB 4:15 01-Born To Try
DR8 -0.01 dB -9.60 dB 4:11 02-Lost Without You
DR6 -1.06 dB -9.63 dB 3:31 03-A Little Too Late
DR6 -0.39 dB -9.43 dB 4:10 04-Last Night On Earth
DR6 -1.57 dB -9.47 dB 4:27 05-Flawed
DR6 -0.90 dB -10.18 dB 3:51 06-Almost Here (Duet with Brian McFadden)
DR6 -1.04 dB -9.12 dB 4:18 07-Extraordinary Day
DR7 -0.21 dB -9.06 dB 3:55 08-Innocent Eyes
DR8 -0.13 dB -10.50 dB 4:28 09-Not Me, Not I
DR5 -1.21 dB -8.37 dB 3:37 10-Never Fades Away
DR8 -0.01 dB -11.10 dB 3:40 11-Predictable
DR7 -0.24 dB -8.66 dB 3:45 12-My Big Mistake
DR7 -0.90 dB -9.51 dB 4:03 13-Be Strong
DR5 -1.02 dB -7.95 dB 4:24 14-Out Of The Blue
--------------------------------------------------------------------------------

Number of tracks: 14
Official DR value: DR7

Samplerate: 44100 Hz
Channels: 2
Bits per sample: 16
Bitrate: 945 kbps
Codec: FLAC
================================================================================

[CUETools log; Date: 11.12.2015 15:55:10; Version: 2.1.5]
[CTDB TOCID: HMBXdSFK2yIbjzxHVIy3hQ6jD0E-] found.
Track | CTDB Status
1 | (8/8) Accurately ripped
2 | (8/8) Accurately ripped
3 | (8/8) Accurately ripped
4 | (8/8) Accurately ripped
5 | (8/8) Accurately ripped
6 | (8/8) Accurately ripped
7 | (8/8) Accurately ripped
8 | (8/8) Accurately ripped
9 | (8/8) Accurately ripped
10 | (8/8) Accurately ripped
11 | (8/8) Accurately ripped
12 | (8/8) Accurately ripped
13 | (8/8) Accurately ripped
14 | (8/8) Accurately ripped
[AccurateRip ID: 001d45d8-01379118-d00d430e] found.
Track [ CRC | V2 ] Status
01 [315ed415|9dfa82ed] (04+05/09) Accurately ripped
02 [21c7b34e|20d24eb1] (04+05/09) Accurately ripped
03 [bfda7364|e552f639] (04+05/09) Accurately ripped
04 [06f26ac6|3e1b30d2] (04+05/09) Accurately ripped
05 [d0d9a08d|b43184c0] (04+10/14) Accurately ripped
06 [bb7f85ca|141a5f1e] (04+05/09) Accurately ripped
07 [a24c5433|bfd8d486] (04+05/09) Accurately ripped
08 [ee3c531f|d99aeaa0] (04+05/09) Accurately ripped
09 [a61fa3aa|d04371ea] (04+05/09) Accurately ripped
10 [96f19182|d0e756e2] (04+10/14) Accurately ripped
11 [84528cbb|500360ea] (04+05/09) Accurately ripped
12 [a7f870d4|74246346] (04+05/09) Accurately ripped
13 [128a3f49|4100834b] (04+05/09) Accurately ripped
14 [0b8c1458|e2c213e4] (04+05/09) Accurately ripped

Track Peak [ CRC32 ] [W/O NULL] [ LOG ]
-- 99,8 [BAB926D5] [2E46D246] CRC32
01 99,8 [1B6E18E6] [107B5D4D]
02 99,8 [8E4C7FEE] [A769FAF5]
03 88,4 [F2D6AB05] [FF732701]
04 95,6 [A7D2434E] [4C8DD60B]
05 83,4 [AB9F17EB] [93E7FD68]
06 90,1 [639EF81A] [F8F9BCE6]
07 88,7 [7AF9C2BD] [1CB99DE8]
08 97,6 [D2491D62] [152B4DB0]
09 98,5 [99FCDC95] [77BC5B46]
10 86,9 [8512432E] [C7D615F8]
11 99,8 [51CFF8B6] [27CA5618]
12 97,2 [C4BBC768] [24E9E208]
13 90,1 [6D5C6602] [4B7357C5]
14 88,9 [82F7C9B9] [CFC8AC0A]


All thanks go to serg-82



No mirrors, please!

Download: