Mats Glenngård - Kosterläge (1972) [Reissue 2012] (Repost)


Mats Glenngård - Kosterläge (1972) [Reissue 2012]
EAC Rip | FLAC (tracks+.cue+log) - 228 MB | MP3 CBR 320 kbps (LAME 3.93) - 87 MB | Covers (6 MB) included
Genre: Progressive Folk Rock | RAR 3% Rec. | Label: Flawed Gems (GEM 87)

In 1972 Mats Glenngård became a member of MK ll line-up of great, folk-progressive rock band Kebnekajse. In the same year he recorded a fantastic solo album (released by small Gump label) with a help from the members of Fläsket Brinner, Nature, Atlantic Ocean, Jason’s Fleece and of course Kebnekajse. Although Glenngård is known mostly for his fine violin playing, ‘Kosterläge' LP focused just as much on his songwriting and guitar skills. The album delivers four beautiful and very fluid long progressive tracks (featuring his Swedish vocals) alongside some very short folk tunes on the violin. The longer tracks can be compared to the style of other heavy-progressive Swedish bands like Life, November and Saga. This CD has been carefully remastered from the original, analogue source.

Tracklist:
01. Natthimmelen
02. Kosterläge
03. Jörans Låt
04. Djuret
05. Berget Heter Bonden (Fiolatten)
06. Allt Pa Denna Runda Jord
07. Tongang Till Täby
08. Det Snöar På Mitt Huvud

Total time: 34:20

Exact Audio Copy V0.99 prebeta 5 from 4. May 2009

EAC extraction logfile from 18. September 2012, 15:31

Mats Glenngard / Kosterlдge

Used drive : PLEXTOR DVDR PX-880U Adapter: 3 ID: 0

Read mode : Secure
Utilize accurate stream : Yes
Defeat audio cache : Yes
Make use of C2 pointers : No

Read offset correction : 6
Overread into Lead-In and Lead-Out : No
Fill up missing offset samples with silence : Yes
Delete leading and trailing silent blocks : No
Null samples used in CRC calculations : Yes
Used interface : Native Win32 interface for Win NT & 2000
Gap handling : Appended to previous track

Used output format : User Defined Encoder
Selected bitrate : 1024 kBit/s
Quality : High
Add ID3 tag : No
Command line compressor : C:Program FilesExact Audio CopyFlacflac.exe
Additional command line options : -8 -V -T "ARTIST=%a" -T "TITLE=%t" -T "ALBUM=%g" -T "DATE=%y" -T "TRACKNUMBER=%n" -T "GENRE=%m" -T "COMMENT=Rip by Rob" %s


TOC of the extracted CD

Track | Start | Length | Start sector | End sector
---------------------------------------------------------
1 | 0:00.00 | 2:13.45 | 0 | 10019
2 | 2:13.45 | 7:19.54 | 10020 | 42998
3 | 9:33.24 | 0:22.17 | 42999 | 44665
4 | 9:55.41 | 5:23.56 | 44666 | 68946
5 | 15:19.22 | 1:59.02 | 68947 | 77873
6 | 17:18.24 | 4:47.46 | 77874 | 99444
7 | 22:05.70 | 1:18.37 | 99445 | 105331
8 | 23:24.32 | 10:54.43 | 105332 | 154424


Track 1

Filename D:EAC1 - Natthimlen.wav

Pre-gap length 0:00:02.00

Peak level 94.4 %
Track quality 100.0 %
Test CRC 20A3307D
Copy CRC 20A3307D
Track not present in AccurateRip database
Copy OK

Track 2

Filename D:EAC2 - Kosterlдge.wav

Peak level 93.7 %
Track quality 100.0 %
Test CRC 28D5DC15
Copy CRC 28D5DC15
Track not present in AccurateRip database
Copy OK

Track 3

Filename D:EAC3 - Jцrans Lеt.wav

Pre-gap length 0:00:02.00

Peak level 90.5 %
Track quality 99.5 %
Test CRC D2A51995
Copy CRC D2A51995
Track not present in AccurateRip database
Copy OK

Track 4

Filename D:EAC4 - Djuret.wav

Peak level 94.0 %
Track quality 99.9 %
Test CRC F8FBF02F
Copy CRC F8FBF02F
Track not present in AccurateRip database
Copy OK

Track 5

Filename D:EAC5 - Berget Heter Bonden.wav

Pre-gap length 0:00:02.00

Peak level 75.3 %
Track quality 100.0 %
Test CRC C9550DF0
Copy CRC C9550DF0
Track not present in AccurateRip database
Copy OK

Track 6

Filename D:EAC6 - Allt pе Denna Runda Jord.wav

Pre-gap length 0:00:02.00

Peak level 94.1 %
Track quality 100.0 %
Test CRC 51E9FB66
Copy CRC 51E9FB66
Track not present in AccurateRip database
Copy OK

Track 7

Filename D:EAC7 - Tongеng till Tдby.wav

Pre-gap length 0:00:02.00

Peak level 98.8 %
Track quality 100.0 %
Test CRC CB705991
Copy CRC CB705991
Track not present in AccurateRip database
Copy OK

Track 8

Filename D:EAC8 - Det Snцar Pе Mitt Huvud.wav

Pre-gap length 0:00:02.00

Peak level 98.8 %
Track quality 100.0 %
Test CRC 824F6EA9
Copy CRC 824F6EA9
Track not present in AccurateRip database
Copy OK


None of the tracks are present in the AccurateRip database

No errors occurred

End of status report

[CUETools log; Date: 20.12.2015 17:03:16; Version: 2.1.4]
[CTDB TOCID: nGA5DD9Mw1k2fXSm9YA1UhEs5JE-] disk not present in database.
[AccurateRip ID: 0009363c-003e13b5-5a080b08] found.
Track [ CRC | V2 ] Status
01 [a502d74a|9ee66a19] (0+0/1) No match
02 [d9e501b8|e233d814] (0+0/1) No match
03 [11d757c9|8f7c100c] (0+0/1) No match
04 [7ed2d1d0|ef1e04fc] (0+0/1) No match
05 [c61bb519|c617784b] (0+0/1) No match
06 [91fe0f04|95235bbb] (0+0/1) No match
07 [c649a3ad|0ef57c0a] (0+0/1) No match
08 [f1a6de2e|253e0c25] (0+0/1) No match
Offsetted by 6:
01 [33c21e26] (0/1) No match (V2 was not tested)
02 [9c366adc] (0/1) No match (V2 was not tested)
03 [cc6b2df0] (0/1) No match (V2 was not tested)
04 [559215a5] (0/1) No match (V2 was not tested)
05 [8e695f29] (0/1) No match (V2 was not tested)
06 [f30cedaa] (0/1) No match (V2 was not tested)
07 [0b831d4f] (0/1) No match (V2 was not tested)
08 [53ac4f3c] (0/1) No match (V2 was not tested)

Track Peak [ CRC32 ] [W/O NULL] [ LOG ]
-- 98,8 [B3246037] [F1D39802]
01 94,4 [20A3307D] [1DED7D96] CRC32
02 93,7 [28D5DC15] [E14BBCE6] CRC32
03 90,5 [D2A51995] [73F64B7C] CRC32
04 94,0 [F8FBF02F] [78C0FEB8] CRC32
05 75,3 [C9550DF0] [8500C117] CRC32
06 94,1 [51E9FB66] [711993E8] CRC32
07 98,8 [CB705991] [1C958268] CRC32
08 98,8 [824F6EA9] [4CFE4588] CRC32

Thanks to Rob

See also:


LOSSLESS:

________________

MP3 320 kbps: