Вход в свой аккаунт

Или войдите через соц. сети

Harry Belafonte - To Wish You A Merry Christmas (1958) Reissue 1989


Harry Belafonte - To Wish You A Merry Christmas (1958) Reissue 1989
EAC | FLAC | Tracks (Cue&Log) ~ 264 Mb (incl 5%) | Mp3 (CBR320) ~ 136 Mb (incl 5%) | Scans included
Genre: Vocal Pop, Holidays | Label: RCA | # ND 89108 | Time: 00:44:09

“ This CD contains many lesser known christmas songs such as "I heard the bells on christmas day" , "Star in the East" and Christmas is coming". It also contains Harry Belafonte's christmas contribution "Mary's Boy Child" as well as the very beautiful "The gifts they gave" There is also the inspirational "Jehova the lord will provide". There is also the standard "Silent NIght" and " 12 days of Christmas". Many of the songs are the less traditional Christmas carols.

Review by Theodore Illenberg, Amazon
”


“ Every time I play this album during the busy holiday season, I am taken back 20 years. As a little girl lying on my parent's green sofa with the night sky darkening, I would listen to this album and think about Christmas and all of its meaning wrapped up into child-like dreams. The bouncing Christmas lights on the tree seemed to dance along with the music. "Mary, Mary", is one of my favoite songs. Harry Belefonte's voice just booms with feeling! What a fabulous trip down memory lane this album provides me every Christmas. I hope that it one day does that for my boys too.

Review by JLT, Amazon
”






Tracklist:

01. A Star In The East (04:17)
02. The Gifts They Gave (03:58)
03. The Son Of Mary (03:23)
04. The Twelve Days Of Christmas (03:49)
05. Where The Little Jesus Sleeps (02:07)
06. Medley; Oh Little Town Of Bethlehem-Deck The Halls-The First Noel (04:54)
07. Mary's Boy Child (04:24)
08. Silent Night (03:36)
09. Christmas Is Coming (01:39)
10. Mary, Mary (03:22)
11. Jehova The Lord Will Provide (02:58)
12. Medley; We Wish You A Merry Christmas-God Rest Ye Merry, Gentlemen (02:34)
13. I Heard The Bells On Christmas Day (03:03)


Exact Audio Copy V1.0 beta 4 from 7. December 2014

EAC extraction logfile from 1. December 2015, 6:43

Harry Belafonte / To Wish You A Merry Christmas

Used drive : TSSTcorpCDDVDW SH-224DB Adapter: 1 ID: 0

Read mode : Secure
Utilize accurate stream : Yes
Defeat audio cache : Yes
Make use of C2 pointers : No

Read offset correction : 6
Overread into Lead-In and Lead-Out : No
Fill up missing offset samples with silence : Yes
Delete leading and trailing silent blocks : No
Null samples used in CRC calculations : Yes
Used interface : Native Win32 interface for Win NT & 2000
Gap handling : Appended to previous track

Used output format : User Defined Encoder
Selected bitrate : 896 kBit/s
Quality : High
Add ID3 tag : No
Command line compressor : C:Program FilesExact Audio CopyFlacflac.exe
Additional command line options : -6 -V -T "ARTIST=%artist%" -T "TITLE=%title%" -T "ALBUM=%albumtitle%" -T "DATE=%year%" -T "TRACKNUMBER=%tracknr%" -T "GENRE=%genre%" -T "COMMENT=%comment%" %source% -o %dest%


TOC of the extracted CD

Track | Start | Length | Start sector | End sector
---------------------------------------------------------
1 | 0:00.33 | 4:17.50 | 33 | 19357
2 | 4:18.08 | 3:58.65 | 19358 | 37272
3 | 8:16.73 | 3:23.05 | 37273 | 52502
4 | 11:40.03 | 3:49.15 | 52503 | 69692
5 | 15:29.18 | 2:07.20 | 69693 | 79237
6 | 17:36.38 | 4:54.05 | 79238 | 101292
7 | 22:30.43 | 4:24.02 | 101293 | 121094
8 | 26:54.45 | 3:36.25 | 121095 | 137319
9 | 30:30.70 | 1:39.73 | 137320 | 144817
10 | 32:10.68 | 3:22.72 | 144818 | 160039
11 | 35:33.65 | 2:58.15 | 160040 | 173404
12 | 38:32.05 | 2:34.73 | 173405 | 185027
13 | 41:07.03 | 3:03.25 | 185028 | 198777


Track 1

Filename C:New Folder1 - A Star In The East.wav

Pre-gap length 0:00:02.33

Peak level 55.5 %
Extraction speed 2.0 X
Track quality 100.0 %
Test CRC 1A4B4BFA
Copy CRC 1A4B4BFA
Accurately ripped (confidence 6) [D4BE3E31] (AR v2)
Copy OK

Track 2

Filename C:New Folder2 - The Gifts They Gave.wav

Pre-gap length 0:00:02.00

Peak level 46.0 %
Extraction speed 2.0 X
Track quality 100.0 %
Test CRC 90F6BA03
Copy CRC 90F6BA03
Accurately ripped (confidence 6) [9A12FDAF] (AR v2)
Copy OK

Track 3

Filename C:New Folder3 - The Son Of Mary.wav

Pre-gap length 0:00:02.00

Peak level 52.4 %
Extraction speed 2.0 X
Track quality 100.0 %
Test CRC AA6AE727
Copy CRC AA6AE727
Accurately ripped (confidence 6) [08B26298] (AR v2)
Copy OK

Track 4

Filename C:New Folder4 - The Twelve Days Of Christmas.wav

Pre-gap length 0:00:02.00

Peak level 70.0 %
Extraction speed 2.0 X
Track quality 100.0 %
Test CRC F137AE16
Copy CRC F137AE16
Accurately ripped (confidence 6) [DF57E16D] (AR v2)
Copy OK

Track 5

Filename C:New Folder5 - Where The Little Jesus Sleeps.wav

Pre-gap length 0:00:02.00

Peak level 35.5 %
Extraction speed 1.8 X
Track quality 100.0 %
Test CRC 7E22C33F
Copy CRC 7E22C33F
Accurately ripped (confidence 6) [6967755B] (AR v2)
Copy OK

Track 6

Filename C:New Folder6 - Medley; Oh Little Town Of Bethlehem-Deck The Halls-The First Noel.wav

Pre-gap length 0:00:02.00

Peak level 62.1 %
Extraction speed 2.1 X
Track quality 100.0 %
Test CRC 099D4C2D
Copy CRC 099D4C2D
Accurately ripped (confidence 6) [C45250E6] (AR v2)
Copy OK

Track 7

Filename C:New Folder7 - Mary's Boy Child.wav

Pre-gap length 0:00:02.00

Peak level 60.0 %
Extraction speed 2.1 X
Track quality 100.0 %
Test CRC AF70C3F6
Copy CRC AF70C3F6
Accurately ripped (confidence 6) [8082D8C4] (AR v2)
Copy OK

Track 8

Filename C:New Folder8 - Silent Night.wav

Pre-gap length 0:00:02.00

Peak level 41.7 %
Extraction speed 2.0 X
Track quality 100.0 %
Test CRC 4AF59D97
Copy CRC 4AF59D97
Accurately ripped (confidence 6) [9958A1C1] (AR v2)
Copy OK

Track 9

Filename C:New Folder9 - Christmas Is Coming.wav

Pre-gap length 0:00:02.00

Peak level 72.3 %
Extraction speed 1.7 X
Track quality 100.0 %
Test CRC ABE35D96
Copy CRC ABE35D96
Accurately ripped (confidence 6) [EB62D30F] (AR v2)
Copy OK

Track 10

Filename C:New Folder10 - Mary, Mary.wav

Pre-gap length 0:00:02.00

Peak level 36.8 %
Extraction speed 2.0 X
Track quality 100.0 %
Test CRC E4A35FCF
Copy CRC E4A35FCF
Accurately ripped (confidence 6) [0F7DB2A5] (AR v2)
Copy OK

Track 11

Filename C:New Folder11 - Jehova The Lord Will Provide.wav

Pre-gap length 0:00:02.00

Peak level 57.0 %
Extraction speed 2.0 X
Track quality 100.0 %
Test CRC 1E5F30A8
Copy CRC 1E5F30A8
Accurately ripped (confidence 6) [CC267216] (AR v2)
Copy OK

Track 12

Filename C:New Folder12 - Medley; We Wish You A Merry Christmas-God Rest Ye Merry, Gentlemen.wav

Pre-gap length 0:00:02.00

Peak level 68.8 %
Extraction speed 1.9 X
Track quality 100.0 %
Test CRC 31E91094
Copy CRC 31E91094
Accurately ripped (confidence 6) [C76B08B5] (AR v2)
Copy OK

Track 13

Filename C:New Folder13 - I Heard The Bells On Christmas Day.wav

Pre-gap length 0:00:02.00

Peak level 70.8 %
Extraction speed 2.0 X
Track quality 100.0 %
Test CRC DF0A1274
Copy CRC DF0A1274
Accurately ripped (confidence 6) [21095662] (AR v2)
Copy OK


All tracks accurately ripped

No errors occurred

End of status report

---- CUETools DB Plugin V2.1.4

[CTDB TOCID: NK8ut.AzNuxsSZfL1pRq3_0O0zU-] found
Submit result: NK8ut.AzNuxsSZfL1pRq3_0O0zU- has been confirmed
Track | CTDB Status
1 | (2/2) Accurately ripped
2 | (2/2) Accurately ripped
3 | (2/2) Accurately ripped
4 | (2/2) Accurately ripped
5 | (2/2) Accurately ripped
6 | (2/2) Accurately ripped
7 | (2/2) Accurately ripped
8 | (2/2) Accurately ripped
9 | (2/2) Accurately ripped
10 | (2/2) Accurately ripped
11 | (2/2) Accurately ripped
12 | (2/2) Accurately ripped
13 | (2/2) Accurately ripped


==== Log checksum AEEE2DB6D43FABF6DB78661782D554005DD10B0C9971772F8457F681F4BDDBCC ====

foobar2000 1.2 / Dynamic Range Meter 1.1.1
log date: 2015-12-21 17:20:40

--------------------------------------------------------------------------------
Analyzed: Harry Belafonte / To Wish You A Merry Christmas
--------------------------------------------------------------------------------

DR Peak RMS Duration Track
--------------------------------------------------------------------------------
DR11 -5.11 dB -20.93 dB 4:18 01-A Star In The East
DR10 -6.73 dB -20.85 dB 3:59 02-The Gifts They Gave
DR10 -5.60 dB -20.25 dB 3:23 03-The Son Of Mary
DR12 -3.10 dB -18.02 dB 3:49 04-The Twelve Days Of Christmas
DR9 -8.99 dB -22.28 dB 2:07 05-Where The Little Jesus Sleeps
DR11 -4.14 dB -19.61 dB 4:54 06-Medley; Oh Little Town Of Bethlehem-Deck The Halls-The First Noel
DR10 -4.43 dB -19.07 dB 4:24 07-Mary's Boy Child
DR11 -7.58 dB -22.69 dB 3:36 08-Silent Night
DR9 -2.81 dB -17.40 dB 1:40 09-Christmas Is Coming
DR8 -8.67 dB -21.58 dB 3:23 10-Mary, Mary
DR10 -4.87 dB -18.65 dB 2:58 11-Jehova The Lord Will Provide
DR11 -3.24 dB -17.41 dB 2:35 12-Medley; We Wish You A Merry Christmas-God Rest Ye Merry, Gentlemen
DR11 -2.99 dB -18.30 dB 3:03 13-I Heard The Bells On Christmas Day
--------------------------------------------------------------------------------

Number of tracks: 13
Official DR value: DR10

Samplerate: 44100 Hz
Channels: 2
Bits per sample: 16
Bitrate: 716 kbps
Codec: FLAC
================================================================================



All thanks to original releaser - alekow