Вход в свой аккаунт

Или войдите через соц. сети

Thieves' Kitchen - The Clockwork Universe (2015)


Thieves' Kitchen - The Clockwork Universe (2015)
EAC Rip | FLAC (image+.cue+log) - 316 MB | MP3 CBR 320 kbps (LAME 3.93) - 121 MB | Covers - 26 MB
Genre: Progressive Rock | RAR 3% Rec. | Label: Self-released (TKCD006)

“ Thieves’ Kitchen are proud to announce the release of their latest album The Clockwork Universe. The Clockwork Universe is an album exploring the human experience of a complex world. These are songs about people whose experience brings them into contact with a universe of science and learning, whether as a child (Prodigy), a neglected spouse (The Scientist’s Wife), young lovers (Library Song) or as a bystander confronted with the inexorable progress of industrialisation (Railway Time). Two exquisite instrumental arrangements (Astrolabe, Orrery) bring to mind a bygone age of scientific exploration, and the candlelit solitude of the seeker. The music is intelligent, substantial, dynamic and harmonically unconventional. Thieves’ Kitchen continues to display the inquisitiveness and sense of musical adventure seen in their previous album, One for Sorrow, Two for Joy. ”


Tracklist:
01. Library Song
02. Railway Time
03. Astrolabe
04. Prodigy
05. The Scientist's Wife
06. Orrery

Total time: 51:32

Exact Audio Copy V1.1 from 23. June 2015

EAC extraction logfile from 20. December 2015, 18:46

Thieves' Kitchen / The Clockwork Universe

Used drive : ASUS DRW-24B1LT Adapter: 1 ID: 2

Read mode : Secure
Utilize accurate stream : Yes
Defeat audio cache : Yes
Make use of C2 pointers : No

Read offset correction : 6
Overread into Lead-In and Lead-Out : No
Fill up missing offset samples with silence : Yes
Delete leading and trailing silent blocks : No
Null samples used in CRC calculations : Yes
Used interface : Native Win32 interface for Win NT & 2000

Used output format : User Defined Encoder
Selected bitrate : 1024 kBit/s
Quality : High
Add ID3 tag : Yes
Command line compressor : C:Program Files (x86)FLAC_1.3.1win64flac.exe
Additional command line options : -6 -V -T "ARTIST=%artist%" -T "TITLE=%title%" -T "ALBUM=%albumtitle%" -T "DATE=%year%" -T "TRACKNUMBER=%tracknr%" -T "GENRE=%genre%" -T "COMMENT=ripped by wurensh for rutracker.org" %source% -o %dest%


TOC of the extracted CD

Track | Start | Length | Start sector | End sector
---------------------------------------------------------
1 | 0:00.00 | 6:47.62 | 0 | 30586
2 | 6:47.62 | 7:38.73 | 30587 | 65009
3 | 14:26.60 | 3:17.55 | 65010 | 79839
4 | 17:44.40 | 9:07.29 | 79840 | 120893
5 | 26:51.69 | 19:58.46 | 120894 | 210789
6 | 46:50.40 | 4:41.52 | 210790 | 231916


Range status and errors

Selected range

Filename Y:EACwurenshThieves' KitchenThieves' Kitchen - The Clockwork Universe.wav

Peak level 99.5 %
Extraction speed 3.0 X
Range quality 99.9 %
Test CRC E494AF82
Copy CRC E494AF82
Copy OK

No errors occurred


AccurateRip summary

Track 1 accurately ripped (confidence 1) [C4A99D71] (AR v2)
Track 2 accurately ripped (confidence 1) [6D37A087] (AR v2)
Track 3 accurately ripped (confidence 1) [9762A719] (AR v2)
Track 4 accurately ripped (confidence 1) [157001A9] (AR v2)
Track 5 accurately ripped (confidence 1) [F3406A99] (AR v2)
Track 6 accurately ripped (confidence 1) [3DFC55B7] (AR v2)

All tracks accurately ripped

End of status report

---- CUETools DB Plugin V2.1.6

[CTDB TOCID: mRieNwY4lC2tQNtzMaKjSE99Sh0-] found
Submit result: mRieNwY4lC2tQNtzMaKjSE99Sh0- has been confirmed
Track | CTDB Status
1 | (6/6) Accurately ripped
2 | (6/6) Accurately ripped
3 | (6/6) Accurately ripped
4 | (6/6) Accurately ripped
5 | (6/6) Accurately ripped
6 | (6/6) Accurately ripped


==== Log checksum A33452E74590E139F65331864017B07D1B212A331CEE0D2D3E8060AE6D70CAF5 ====

[CUETools log; Date: 29.12.2015 17:32:17; Version: 2.1.4]
[CTDB TOCID: mRieNwY4lC2tQNtzMaKjSE99Sh0-] found.
Track | CTDB Status
1 | (7/7) Accurately ripped
2 | (7/7) Accurately ripped
3 | (7/7) Accurately ripped
4 | (7/7) Accurately ripped
5 | (7/7) Accurately ripped
6 | (7/7) Accurately ripped
[AccurateRip ID: 000b46de-003e1362-4a0c1406] found.
Track [ CRC | V2 ] Status
01 [3dfcc4fd|c4a99d71] (0+1/1) Accurately ripped
02 [f999f563|6d37a087] (0+1/1) Accurately ripped
03 [a795738d|9762a719] (0+1/1) Accurately ripped
04 [f8d2dc74|157001a9] (0+1/1) Accurately ripped
05 [e0338dd4|f3406a99] (0+1/1) Accurately ripped
06 [17ca368a|3dfc55b7] (0+1/1) Accurately ripped

Track Peak [ CRC32 ] [W/O NULL] [ LOG ]
-- 99,5 [E494AF82] [335E34C3] CRC32
01 96,9 [CC38218B] [C56A2D32]
02 98,2 [2D54CF77] [DF825047]
03 68,5 [F1BC57F9] [F25EF5BE]
04 97,1 [3F1CD2D7] [2AFAD790]
05 99,5 [F4BB7853] [266F7AB4]
06 67,8 [CED14613] [36F47227]

Thanks to wurensh

See also:

LOSSLESS:

_______________

MP3 320 kbps:

_______________

Covers: