Anthony Geraci & The Boston Blues All-Stars - Fifty Shades Of Blue (2015)


Anthony Geraci & The Boston Blues All-Stars - Fifty Shades Of Blue (2015)
EAC Rip | FLAC (Img) + Cue + Log ~ 394 Mb
Scans (JPG, 600 dpi) ~ 36 Mb | RAR 5% Recovery
Blues | Delta Groove Music #DGPCD171

For almost 40-years pianist/composer Anthony Geraci has played behind some of the most influential blues musicians of the 20th century. He is an original member of both Sugar Ray & the Bluetones and Ronnie Earl & the Broadcasters, and has been recognized for his contributions on numerous albums by nominations from both the Blues Music Awards and the Grammys. 'Fifty Shades of Blue' showcases 13 of his original songs, backed by an all-star cast featuring the top blues musicians in the Boston area including Sugar Ray Norcia, Darrell Nulisch, Toni Lynn Washington, Michelle 'Evil Gal' Willson, Monster Mike Welch, Michael 'Mudcat' Ward, Marty Richards and Neil Gouvin.
~ Amazon


***************


Track List:

01. Everything I Do Is Wrong [03:24]
02. Fifty Shades of Blue [03:28]
03. Sad but True [03:55]
04. Heard That Tutwiler Whistle Blow [05:21]
05. If You Want to Get to Heaven [04:20]
06. Don't Keep Me Waiting [04:13]
07. The Blues Never Sleeps [03:16]
08. Too Late for Coffee [02:56]
09. Diamonds and Pearls [04:13]
10. Cry a Million Tears [06:00]
11. In the Quicksand, Again [03:13]
12. Your Turn to Cry [03:57]
13. Blues for David Maxwell [06:07]

Exact Audio Copy V1.0 beta 3 from 29. August 2011

Отчёт EAC об извлечении, выполненном 25. декабря 2015, 12:44

Anthony Geraci and The Boston Blues All-Stars / Fifty Shades Of Blue

Дисковод: ATAPI iHAS424 A Adapter: 0 ID: 0

Режим чтения : Достоверность
Использование точного потока : Да
Отключение кэша аудио : Да
Использование указателей C2 : Нет

Коррекция смещения при чтении : 6
Способность читать области Lead-in и Lead-out : Нет
Заполнение пропущенных сэмплов тишиной : Да
Удаление блоков с тишиной в начале и конце : Нет
При вычислениях CRC использовались нулевые сэмплы : Да
Интерфейс : Установленный внешний ASPI-интерфейс

Выходной формат : Пользовательский кодировщик
Выбранный битрейт : 1024 kBit/s
Качество : Высокий
Добавление ID3-тега : Нет
Утилита сжатия : C:Program FilesExact Audio CopyFLACFLAC.EXE
Дополнительные параметры : -8 -V -T "ARTIST=%artist%" -T "ALBUM=%albumtitle%" -T "DATE=%year%" -T "GENRE=%genre%" -T "COMMENT=ripped by izia1956" %source%


TOC извлечённого CD

Трек | Старт | Длительность | Начальный сектор | Конечный сектор
––––––––––––––––––––––––––––––––––-
1 | 0:00.00 | 3:23.69 | 0 | 15293
2 | 3:23.69 | 3:27.21 | 15294 | 30839
3 | 6:51.15 | 3:54.73 | 30840 | 48462
4 | 10:46.13 | 5:20.25 | 48463 | 72487
5 | 16:06.38 | 4:19.03 | 72488 | 91915
6 | 20:25.41 | 4:12.55 | 91916 | 110870
7 | 24:38.21 | 3:15.64 | 110871 | 125559
8 | 27:54.10 | 2:55.12 | 125560 | 138696
9 | 30:49.22 | 4:12.55 | 138697 | 157651
10 | 35:02.02 | 5:59.29 | 157652 | 184605
11 | 41:01.31 | 3:12.55 | 184606 | 199060
12 | 44:14.11 | 3:56.36 | 199061 | 216796
13 | 48:10.47 | 6:06.17 | 216797 | 244263


Характеристики диапазона извлечения и сообщения об ошибках

Выбранный диапазон

Имя файла D:BitCometAnthony Geraci and The Boston Blues All-Stars - Fifty Shades Of Blue(2015)Anthony Geraci and The Boston Blues All-Stars - Fifty Shades Of Blue.wav

Пиковый уровень 100.0 %
Скорость извлечения 5.0 X
Качество диапазона 100.0 %
CRC теста 450562A2
CRC копии 450562A2
Копирование… OK

Ошибок не произошло


AccurateRip: сводка

Трек 1 : извлечено точно (доверие 2) [02189272] (AR v2)
Трек 2 : извлечено точно (доверие 2) [7C55C3EB] (AR v2)
Трек 3 : извлечено точно (доверие 2) [B6158503] (AR v2)
Трек 4 : извлечено точно (доверие 2) [97D55B86] (AR v2)
Трек 5 : извлечено точно (доверие 2) [CB841CE4] (AR v2)
Трек 6 : извлечено точно (доверие 2) [262888B4] (AR v2)
Трек 7 : извлечено точно (доверие 2) [5B22FECC] (AR v2)
Трек 8 : извлечено точно (доверие 2) [380B020C] (AR v2)
Трек 9 : извлечено точно (доверие 2) [C44C24E7] (AR v2)
Трек 10 : извлечено точно (доверие 2) [35D21B34] (AR v2)
Трек 11 : извлечено точно (доверие 2) [F31B2085] (AR v2)
Трек 12 : извлечено точно (доверие 2) [593DFD63] (AR v2)
Трек 13 : извлечено точно (доверие 2) [1A44E766] (AR v2)

Все треки извлечены точно

Конец отчёта

==== Контрольная сумма отчёта 055BAFB0E8B2A5B512222D06B69580D9C1D7770617F3D9FF779B160C60D4A352 ====

foobar2000 1.2.6 / Dynamic Range Meter 1.1.1
log date: 2016-01-05 03:26:03

––––––––––––––––––––––––––––––––––––––––
Analyzed: Anthony Geraci and The Boston Blues All-Stars / Fifty Shades Of Blue
––––––––––––––––––––––––––––––––––––––––

DR Peak RMS Duration Track
––––––––––––––––––––––––––––––––––––––––
DR6 0.00 dB -6.92 dB 3:24 01-Everything I Do Is Wrong
DR5 0.00 dB -6.12 dB 3:27 02-Fifty Shades of Blue
DR5 0.00 dB -5.42 dB 3:55 03-Sad but True
DR5 0.00 dB -5.43 dB 5:20 04-Heard That Tutwiler Whistle Blow
DR5 0.00 dB -5.75 dB 4:19 05-If You Want to Get to Heaven
DR6 0.00 dB -7.54 dB 4:13 06-Don't Keep Me Waiting
DR6 0.00 dB -6.36 dB 3:16 07-The Blues Never Sleeps
DR5 0.00 dB -6.02 dB 2:55 08-Too Late for Coffee
DR5 0.00 dB -6.17 dB 4:13 09-Diamonds and Pearls
DR6 0.00 dB -8.04 dB 5:59 10-Cry a Million Tears
DR5 0.00 dB -6.27 dB 3:13 11-In the Quicksand, Again
DR5 0.00 dB -5.67 dB 3:56 12-Your Turn to Cry
DR5 0.00 dB -7.24 dB 6:06 13-Blues for David Maxwell
––––––––––––––––––––––––––––––––––––––––

Number of tracks: 13
Official DR value: DR5

Samplerate: 44100 Hz
Channels: 2
Bits per sample: 16
Bitrate: 967 kbps
Codec: FLAC
================================================================================

[CUETools log; Date: 05.01.2016 3:25:20; Version: 2.1.5]
[CTDB TOCID: Mm6YzK_a3ZJbTXDlft.vAWeYg0M-] found.
Track | CTDB Status
1 | (1/1) Accurately ripped
2 | (1/1) Accurately ripped
3 | (1/1) Accurately ripped
4 | (1/1) Accurately ripped
5 | (1/1) Accurately ripped
6 | (1/1) Accurately ripped
7 | (1/1) Accurately ripped
8 | (1/1) Accurately ripped
9 | (1/1) Accurately ripped
10 | (1/1) Accurately ripped
11 | (1/1) Accurately ripped
12 | (1/1) Accurately ripped
13 | (1/1) Accurately ripped
[AccurateRip ID: 0018f89d-00fbac9a-b40cb80d] found.
Track [ CRC | V2 ] Status
01 [84d97029|02189272] (0+2/2) Accurately ripped
02 [71163654|7c55c3eb] (0+2/2) Accurately ripped
03 [64f63a1f|b6158503] (0+2/2) Accurately ripped
04 [2299f5e6|97d55b86] (0+2/2) Accurately ripped
05 [0196fe70|cb841ce4] (0+2/2) Accurately ripped
06 [2f1a1b4b|262888b4] (0+2/2) Accurately ripped
07 [a1d5d425|5b22fecc] (0+2/2) Accurately ripped
08 [af5010d3|380b020c] (0+2/2) Accurately ripped
09 [45b9613e|c44c24e7] (0+2/2) Accurately ripped
10 [034c1b6b|35d21b34] (0+2/2) Accurately ripped
11 [96196ab5|f31b2085] (0+2/2) Accurately ripped
12 [dae8f6d8|593dfd63] (0+2/2) Accurately ripped
13 [54d37619|1a44e766] (0+2/2) Accurately ripped

Track Peak [ CRC32 ] [W/O NULL] [ LOG ]
– 100,0 [450562A2] [92A98C54] CRC32
01 100,0 [14823EB5] [DB9A43FD]
02 100,0 [ED918D47] [7AF63D83]
03 100,0 [D0322AE7] [AC51F8E7]
04 100,0 [7B78A211] [584032D6]
05 100,0 [1CC1FE89] [7B1B0DE4]
06 100,0 [683EDE78] [E9A3657C]
07 100,0 [E037E474] [56DB06DF]
08 100,0 [178ECF01] [DAC085EB]
09 100,0 [04C45A6C] [738C80A5]
10 100,0 [A28D8DA6] [A9478902]
11 100,0 [8CB04469] [81AF01DD]
12 100,0 [47C35E6E] [C0E8EC41]
13 100,0 [E8319B63] [E5E8DD6E]


All thanks go to izia1956



No mirrors, please!

Download: