Weird Al Yankovic - Poodle Hat (2003)


Weird Al Yankovic - Poodle Hat (2003)
EAC Rip | FLAC with CUE and log | scans | 557 mb
MP3 CBR 320kbps | RAR | 157 mb
Genre: parody, comedy, pop, hip-hop, rock, polka

Poodle Hat is the 2003 CD from music parody master Weird Al Yankovic. This was an enhanced CD, and the enhanced portion of disc features home movies; a picture gallery; bonus mixes of tracks 2, 4, 6, 8, 10, and 12; and lyrics, which are included in a separate folder if you download the FLAC's. The enhanced portion is not within the MP3 download. This CD was released on 20 May, 2003


01. Couch Potato
02. Hardware Store
03. Trash Day
04. Party At The Leper Colony
05. Angry White Boy Polka
06. Wanna Be Ur Lovr
07. A Complicated Song
08. Why Does This Always Happen To Me?
09. Ode To A Superhero
10. Bob
11. Ebay
12. Genius In France

–-
"Weird Al" Yankovic-lead & background vocals, keyboards, accordion
Jon "Bermuda" Schwartz-drum programming, drums
Jim West-guitars, mandolin
Steve Jay-bass guitar, banjo
Kim Bullard-keyboards
Ruben Vattierra-keyboards
Tom Evans-saxophone
Warren Luening-trumpets
Joel Peskin-clarinets
Tommy Johnson-tuba
Lee Thornburg-trumpet, trombone
DJ Swamp-scratching
Ben Folds-piano
John "Juke" Logan-harmonica
Will Anderson-harmonica
Herb Pederson-banjo
Dweezil Zappa-intro guitar solo (track 12)
Lisa Popeil-background vocals
Julia Waters-background vocals
Maxine Waters-background vocals
Carmen Twilley-background vocals
Bela-barking

Produced by Al Yankovic
Engineered by Tony Papa and Rafael Serrano
Mixed by Tony Papa

Recorded at Mad Dog Studios in Burbank
Polka horns recorded at EMG Studio in North Hollywood (assistant engineer: Doug Sanderson
Even-numbered tracks mixed at Icon Recording Group in Hollywood (assistant engineer: Aaron Kaplan)
Odd-numbered tracks mixed at Westlake Audio in Hollywood (assistant engineer: Tony Zoeller
Mastered by Bernie Grundman at Bernie Grundman Mastering, L.A., CA



Exact Audio Copy V0.99 prebeta 3 from 28. July 2007

EAC extraction logfile from 25. February 2008, 5:28

Weird Al Yankovic / Poodle Hat

Used drive : LITE-ON DVDRW SOHW-1633S Adapter: 0 ID: 0

Read mode : Secure
Utilize accurate stream : Yes
Defeat audio cache : Yes
Make use of C2 pointers : No

Read offset correction : 12
Overread into Lead-In and Lead-Out : No
Fill up missing offset samples with silence : Yes
Delete leading and trailing silent blocks : No
Null samples used in CRC calculations : Yes
Used interface : Installed external ASPI interface
Gap handling : Appended to previous track

Used output format : Internal WAV Routines
Sample format : 44.100 Hz; 16 Bit; Stereo


TOC of the extracted CD

Track | Start | Length | Start sector | End sector
––––––––––––––––––––––––––––-
1 | 0:00.00 | 4:18.08 | 0 | 19357
2 | 4:18.08 | 3:44.19 | 19358 | 36176
3 | 8:02.27 | 3:11.35 | 36177 | 50536
4 | 11:13.62 | 3:38.45 | 50537 | 66931
5 | 14:52.32 | 5:03.41 | 66932 | 89697
6 | 19:55.73 | 6:14.38 | 89698 | 117785
7 | 26:10.36 | 3:39.23 | 117786 | 134233
8 | 29:49.59 | 4:52.16 | 134234 | 156149
9 | 34:42.00 | 4:52.62 | 156150 | 178111
10 | 39:34.62 | 2:29.14 | 178112 | 189300
11 | 42:04.01 | 3:36.25 | 189301 | 205525
12 | 45:40.26 | 8:56.28 | 205526 | 245753
13 | 57:08.54 | 15:48.10 | 257154 | 328263


Track 1

Filename D:FLACWeird Al Yankovic - Poodle Hat (2003) [FLAC] {Enhanced CD}1 - Couch Potato.wav

Pre-gap length 0:00:02.00

Peak level 98.8 %
Track quality 100.0 %
Test CRC D2D81E29
Copy CRC D2D81E29
Accurately ripped (confidence 2) [988FCB43]
Copy OK

Track 2

Filename D:FLACWeird Al Yankovic - Poodle Hat (2003) [FLAC] {Enhanced CD}2 - Hardware Store.wav

Peak level 100.0 %
Track quality 100.0 %
Test CRC B6D41839
Copy CRC B6D41839
Accurately ripped (confidence 2) [14580B93]
Copy OK

Track 3

Filename D:FLACWeird Al Yankovic - Poodle Hat (2003) [FLAC] {Enhanced CD}3 - Trash Day.wav

Pre-gap length 0:00:00.64

Peak level 98.8 %
Track quality 100.0 %
Test CRC 0292643E
Copy CRC 0292643E
Accurately ripped (confidence 2) [6B0B883B]
Copy OK

Track 4

Filename D:FLACWeird Al Yankovic - Poodle Hat (2003) [FLAC] {Enhanced CD}4 - Party At The Leper Colony.wav

Peak level 98.8 %
Track quality 100.0 %
Test CRC CF2F74B2
Copy CRC CF2F74B2
Accurately ripped (confidence 2) [1D783985]
Copy OK

Track 5

Filename D:FLACWeird Al Yankovic - Poodle Hat (2003) [FLAC] {Enhanced CD}5 - Angry White Boy Polka.wav

Peak level 98.8 %
Track quality 100.0 %
Test CRC 9F7F6152
Copy CRC 9F7F6152
Accurately ripped (confidence 2) [09A6BC9B]
Copy OK

Track 6

Filename D:FLACWeird Al Yankovic - Poodle Hat (2003) [FLAC] {Enhanced CD}6 - Wanna Be Ur Lovr.wav

Peak level 98.8 %
Track quality 100.0 %
Test CRC A5752430
Copy CRC A5752430
Accurately ripped (confidence 2) [1ED95384]
Copy OK

Track 7

Filename D:FLACWeird Al Yankovic - Poodle Hat (2003) [FLAC] {Enhanced CD}7 - A Complicated Song.wav

Peak level 98.8 %
Track quality 100.0 %
Test CRC CDE19FB2
Copy CRC CDE19FB2
Accurately ripped (confidence 2) [F4CE6E91]
Copy OK

Track 8

Filename D:FLACWeird Al Yankovic - Poodle Hat (2003) [FLAC] {Enhanced CD}8 - Why Does This Always Happen To Me .wav

Peak level 98.8 %
Track quality 99.9 %
Test CRC 2470EE5F
Copy CRC 2470EE5F
Accurately ripped (confidence 2) [E87F23F4]
Copy OK

Track 9

Filename D:FLACWeird Al Yankovic - Poodle Hat (2003) [FLAC] {Enhanced CD}9 - Ode To A Superhero.wav

Peak level 98.8 %
Track quality 100.0 %
Test CRC 4B91CBB3
Copy CRC 4B91CBB3
Accurately ripped (confidence 2) [D3AA1651]
Copy OK

Track 10

Filename D:FLACWeird Al Yankovic - Poodle Hat (2003) [FLAC] {Enhanced CD}10 - Bob.wav

Peak level 98.8 %
Track quality 100.0 %
Test CRC 748ADCC8
Copy CRC 748ADCC8
Accurately ripped (confidence 2) [58DCF676]
Copy OK

Track 11

Filename D:FLACWeird Al Yankovic - Poodle Hat (2003) [FLAC] {Enhanced CD}11 - Ebay.wav

Peak level 98.8 %
Track quality 100.0 %
Test CRC 60D711A2
Copy CRC 60D711A2
Accurately ripped (confidence 2) [1438F0F8]
Copy OK

Track 12

Filename D:FLACWeird Al Yankovic - Poodle Hat (2003) [FLAC] {Enhanced CD}12 - Genius In France.wav

Peak level 98.8 %
Track quality 100.0 %
Test CRC FA664208
Copy CRC FA664208
Accurately ripped (confidence 2) [E6C41827]
Copy OK


All tracks accurately ripped

No errors occurred

End of status report
http://www.nitroflare.com/view/0364998A6D78959/W3lRD4L-P00DL3H4T_2OO3FL4C.rar
http://www.nitroflare.com/view/9FD4A09535126FC/W3lRD4L-P00DL3H4T_2OO3MPE.rar