VA - Rock Instrumental Classics, Vol. 5: Surf (1994)


VA - Rock Instrumental Classics, Vol. 5: Surf (1994)
EAC | FLAC | Tracks (Cue&Log) ~ 297 Mb (incl 5%) | Mp3 (CBR320) ~ 153 Mb (incl 5%) | Scans included
Genre: Surf, Instrumental Pop/Rock | Label: Rhino | # R2 71605 | Time: 00:42:11

Rhino closes its five-volume rock instrumentals series with an 18-track outing devoted to surf guitar. This fast-paced, prickly, and frequently exciting form may not be among the most diversified structurally, but if does offer some surging playing from its practitioners. They range from founding father Dick Dale to its most popular bands, the Surfaris, Belairs, Ventures, and Chantays. While not particularly a hardcore surf collection, this disc certainly outlines its virtues, and the tunes were long enough to display guitar proficiency, but short enough to prevent self-indulgence and repetition.

Review by Ron Wynn, Allmusic.com

If you wish to know whether or not you are a surf rock fan. Most of the biggest surf rock instrumental classics are included on this compilation. Just about every one of the major artists are included here, such as Dick Dale, the Ventures, and the Challengers. If you are already a diehard surf fanatic, you probably already own most (if not all) of the songs included here, so theres no need to pick this up. However, if you are only a casual fan (or if you need at least one album representing every major rock period in your collection), this is a good purchase. Each one of these songs presents why surf rock was one of the coolest genres ever. Even though its not an extremely varied style, it rocked and rocked hard through an era when many said rock 'n' roll was dead or dying (between when the original wave of rockabilly died out and before the British Invasion). If you enjoy this album, I suggest you pick up Rhino's Dick Dale compilation and if you can track it down their Surf box set. Like many genres which are becoming popular again, you'd have to search through a lot of dull and uninspired artifacts to get to the gold. This sampler represents the best of the best.

Review by TimothyFarrell22, Amazon.com

Tracklist:

01. Chantays - Pipeline (02:22)
02. The Belairs - Mr. Moto (02:11)
03. The Surfaris - Wipe Out (02:40)
04. The Frogmen - Underwater (02:08)
05. Dick Dale & the Del-Tones - Miserlou (02:16)
06. The Ventures - Diamond Head (02:04)
07. The Astronauts - Baja (02:27)
08. The Mar-Kets - Surfer's Stomp (01:59)
09. The Tornadoes - Bustin' Surfboards (02:29)
10. The Pyramids - Penetration (02:04)
11. Eddie & the Showmen - Mr. Rebel (01:58)
12. The Crossfires - Fiberglass Jungle (02:13)
13. The Challengers - K-39 (02:14)
14. The Surfaris - Point Panic (02:19)
15. Dick Dale & the Del-Tones - Let's Go Trippin' (02:09)
16. The Lively Ones - Surf Rider (03:22)
17. Johnny Fortune - Soul Surfer (02:34)
18. Jack Nitzsche - The Lonely Surfer (02:35)


Exact Audio Copy V1.0 beta 1 from 15. November 2010

EAC extraction logfile from 22. May 2011, 20:37

Various / Rock Instrumental Classics Volume 5 (Surf)

Used drive : TSSTcorpCD/DVDW SH-S182D Adapter: 1 ID: 0

Read mode : Secure
Utilize accurate stream : Yes
Defeat audio cache : Yes
Make use of C2 pointers : No

Read offset correction : 6
Overread into Lead-In and Lead-Out : No
Fill up missing offset samples with silence : Yes
Delete leading and trailing silent blocks : No
Null samples used in CRC calculations : Yes
Used interface : Native Win32 interface for Win NT & 2000
Gap handling : Appended to previous track

Used output format : User Defined Encoder
Selected bitrate : 1024 kBit/s
Quality : High
Add ID3 tag : No
Command line compressor : C:Program FilesExact Audio CopyFlacflac.exe
Additional command line options : -5 -V -T "ARTIST=%a" -T "TITLE=%t" -T "ALBUM=%g" -T "DATE=%y" -T "TRACKNUMBER=%n" -T "GENRE=%m" -T "COMMENT=%e" %s -o %d


TOC of the extracted CD

Track | Start | Length | Start sector | End sector
––––––––––––––––––––––––––––-
1 | 0:00.32 | 2:22.38 | 32 | 10719
2 | 2:22.70 | 2:11.52 | 10720 | 20596
3 | 4:34.47 | 2:40.38 | 20597 | 32634
4 | 7:15.10 | 2:08.37 | 32635 | 42271
5 | 9:23.47 | 2:16.08 | 42272 | 52479
6 | 11:39.55 | 2:04.12 | 52480 | 61791
7 | 13:43.67 | 2:27.53 | 61792 | 72869
8 | 16:11.45 | 1:59.12 | 72870 | 81806
9 | 18:10.57 | 2:29.55 | 81807 | 93036
10 | 20:40.37 | 2:04.50 | 93037 | 102386
11 | 22:45.12 | 1:58.43 | 102387 | 111279
12 | 24:43.55 | 2:13.52 | 111280 | 121306
13 | 26:57.32 | 2:14.20 | 121307 | 131376
14 | 29:11.52 | 2:19.00 | 131377 | 141801
15 | 31:30.52 | 2:09.20 | 141802 | 151496
16 | 33:39.72 | 3:22.10 | 151497 | 166656
17 | 37:02.07 | 2:34.10 | 166657 | 178216
18 | 39:36.17 | 2:35.18 | 178217 | 189859


Track 1

Filename C:New Folder1. Chantays - Pipeline.wav

Pre-gap length 0:00:02.32

Peak level 95.5 %
Extraction speed 3.6 X
Track quality 100.0 %
Test CRC 59323393
Copy CRC 59323393
Accurately ripped (confidence 3) [7E89BE44]
Copy OK

Track 2

Filename C:New Folder2. The Belairs - Mr. Moto.wav

Pre-gap length 0:00:01.70

Peak level 100.0 %
Extraction speed 3.6 X
Track quality 100.0 %
Test CRC 3DF6A974
Copy CRC 3DF6A974
Accurately ripped (confidence 3) [1A8BE435]
Copy OK

Track 3

Filename C:New Folder3. The Surfaris - Wipe Out.wav

Pre-gap length 0:00:01.62

Peak level 100.0 %
Extraction speed 4.1 X
Track quality 100.0 %
Test CRC B9B7758D
Copy CRC B9B7758D
Accurately ripped (confidence 3) [65B8B256]
Copy OK

Track 4

Filename C:New Folder4. The Frogmen - Underwater.wav

Pre-gap length 0:00:01.38

Peak level 98.1 %
Extraction speed 2.2 X
Track quality 99.9 %
Test CRC 2AEAE714
Copy CRC 2AEAE714
Accurately ripped (confidence 3) [605EC284]
Copy OK

Track 5

Filename C:New Folder5. Dick Dale & the Del-Tones - Miserlou.wav

Pre-gap length 0:00:01.30

Peak level 100.0 %
Extraction speed 3.6 X
Track quality 100.0 %
Test CRC 6D738140
Copy CRC 6D738140
Accurately ripped (confidence 4) [A5B7E418]
Copy OK

Track 6

Filename C:New Folder6. The Ventures - Diamond Head.wav

Pre-gap length 0:00:02.55

Peak level 96.8 %
Extraction speed 4.7 X
Track quality 100.0 %
Test CRC 56690303
Copy CRC 56690303
Accurately ripped (confidence 3) [96FC600F]
Copy OK

Track 7

Filename C:New Folder7. The Astronauts - Baja.wav

Pre-gap length 0:00:00.32

Peak level 84.9 %
Extraction speed 3.0 X
Track quality 100.0 %
Test CRC 119B74B9
Copy CRC 119B74B9
Accurately ripped (confidence 3) [373D4B24]
Copy OK

Track 8

Filename C:New Folder8. The Mar-Kets - Surfer's Stomp.wav

Pre-gap length 0:00:01.55

Peak level 100.0 %
Extraction speed 4.0 X
Track quality 100.0 %
Test CRC 6C8E78D4
Copy CRC 6C8E78D4
Accurately ripped (confidence 3) [4BAAFEC3]
Copy OK

Track 9

Filename C:New Folder9. The Tornadoes - Bustin' Surfboards.wav

Pre-gap length 0:00:00.47

Peak level 96.6 %
Extraction speed 4.2 X
Track quality 99.9 %
Test CRC F16BA07F
Copy CRC F16BA07F
Accurately ripped (confidence 3) [B35CD753]
Copy OK

Track 10

Filename C:New Folder10. The Pyramids - Penetration.wav

Pre-gap length 0:00:00.70

Peak level 77.4 %
Extraction speed 4.4 X
Track quality 100.0 %
Test CRC EAA70902
Copy CRC EAA70902
Accurately ripped (confidence 3) [1A052F56]
Copy OK

Track 11

Filename C:New Folder11. Eddie & the Showmen - Mr. Rebel.wav

Pre-gap length 0:00:02.60

Peak level 100.0 %
Extraction speed 5.3 X
Track quality 100.0 %
Test CRC A8D2C6C9
Copy CRC A8D2C6C9
Accurately ripped (confidence 3) [F4CA1FD2]
Copy OK

Track 12

Filename C:New Folder12. The Crossfires - Fiberglass Jungle.wav

Pre-gap length 0:00:01.33

Peak level 100.0 %
Extraction speed 4.8 X
Track quality 100.0 %
Test CRC 1E091D8A
Copy CRC 1E091D8A
Accurately ripped (confidence 3) [2FAA2B46]
Copy OK

Track 13

Filename C:New Folder13. The Challengers - K-39.wav

Pre-gap length 0:00:01.12

Peak level 100.0 %
Extraction speed 5.5 X
Track quality 100.0 %
Test CRC FD251067
Copy CRC FD251067
Accurately ripped (confidence 3) [EC839C7A]
Copy OK

Track 14

Filename C:New Folder14. The Surfaris - Point Panic.wav

Pre-gap length 0:00:01.50

Peak level 100.0 %
Extraction speed 5.6 X
Track quality 100.0 %
Test CRC F7BD79FA
Copy CRC F7BD79FA
Accurately ripped (confidence 3) [BC0D20BD]
Copy OK

Track 15

Filename C:New Folder15. Dick Dale & the Del-Tones - Let's Go Trippin'.wav

Pre-gap length 0:00:02.10

Peak level 74.9 %
Extraction speed 4.3 X
Track quality 100.0 %
Test CRC 4F0CA4D4
Copy CRC 4F0CA4D4
Accurately ripped (confidence 3) [0C84CCEC]
Copy OK

Track 16

Filename C:New Folder16. The Lively Ones - Surf Rider.wav

Pre-gap length 0:00:00.10

Peak level 100.0 %
Extraction speed 2.7 X
Track quality 100.0 %
Test CRC 54F2C94A
Copy CRC 54F2C94A
Accurately ripped (confidence 3) [5EDFD0C4]
Copy OK

Track 17

Filename C:New Folder17. Johnny Fortune - Soul Surfer.wav

Pre-gap length 0:00:02.37

Peak level 100.0 %
Extraction speed 4.9 X
Track quality 100.0 %
Test CRC 93A29F6A
Copy CRC 93A29F6A
Accurately ripped (confidence 3) [C0B21AE2]
Copy OK

Track 18

Filename C:New Folder18. Jack Nitzsche - The Lonely Surfer.wav

Pre-gap length 0:00:01.25

Peak level 92.1 %
Extraction speed 6.1 X
Track quality 100.0 %
Test CRC FB9CA51C
Copy CRC FB9CA51C
Accurately ripped (confidence 3) [D52A77F6]
Copy OK


All tracks accurately ripped

No errors occurred

End of status report

==== Log checksum 80137F6B29AFE7D2938D6DB3332A65F6F4813DE682AA2EA1D188A3223666BE2B ====

foobar2000 1.2 / Dynamic Range Meter 1.1.1
log date: 2016-01-07 23:21:51

––––––––––––––––––––––––––––––––––––––––
Analyzed: Chantays / Rock Instrumental Classics Volume 5 (Surf) (1)
Dick Dale & the Del-Tones / Rock Instrumental Classics Volume 5 (Surf) (2-3)
Eddie & the Showmen / Rock Instrumental Classics Volume 5 (Surf) (4)
Jack Nitzsche / Rock Instrumental Classics Volume 5 (Surf) (5)
Johnny Fortune / Rock Instrumental Classics Volume 5 (Surf) (6)
The Astronauts / Rock Instrumental Classics Volume 5 (Surf) (7)
The Belairs / Rock Instrumental Classics Volume 5 (Surf) (8)
The Challengers / Rock Instrumental Classics Volume 5 (Surf) (9)
The Crossfires / Rock Instrumental Classics Volume 5 (Surf) (10)
The Frogmen / Rock Instrumental Classics Volume 5 (Surf) (11)
The Lively Ones / Rock Instrumental Classics Volume 5 (Surf) (12)
The Mar-Kets / Rock Instrumental Classics Volume 5 (Surf) (13)
The Pyramids / Rock Instrumental Classics Volume 5 (Surf) (14)
The Surfaris / Rock Instrumental Classics Volume 5 (Surf) (15-16)
The Tornadoes / Rock Instrumental Classics Volume 5 (Surf) (17)
The Ventures / Rock Instrumental Classics Volume 5 (Surf) (18)
––––––––––––––––––––––––––––––––––––––––

DR Peak RMS Duration Track
––––––––––––––––––––––––––––––––––––––––
DR11 -0.39 dB -13.23 dB 2:23 01-Pipeline
DR11 0.00 dB -12.67 dB 2:16 05-Miserlou
DR11 -2.50 dB -14.27 dB 2:09 15-Let's Go Trippin'
DR10 0.00 dB -12.45 dB 1:59 11-Mr. Rebel
DR10 -0.71 dB -13.19 dB 2:35 18-The Lonely Surfer
DR9 0.00 dB -10.68 dB 2:34 17-Soul Surfer
DR12 -1.41 dB -16.64 dB 2:28 07-Baja
DR11 0.00 dB -13.74 dB 2:12 02-Mr. Moto
DR12 0.00 dB -13.54 dB 2:14 13-K-39
DR9 0.00 dB -10.64 dB 2:14 12-Fiberglass Jungle
DR10 -0.16 dB -12.26 dB 2:08 04-Underwater
DR12 0.00 dB -14.54 dB 3:22 16-Surf Rider
DR13 0.00 dB -14.88 dB 1:59 08-Surfer's Stomp
DR12 -2.22 dB -16.56 dB 2:05 10-Penetration
DR12 0.00 dB -14.44 dB 2:41 03-Wipe Out
DR12 0.00 dB -13.98 dB 2:19 14-Point Panic
DR14 -0.30 dB -17.13 dB 2:30 09-Bustin' Surfboards
DR11 -0.27 dB -13.74 dB 2:04 06-Diamond Head
––––––––––––––––––––––––––––––––––––––––

Number of tracks: 18
Official DR value: DR11

Samplerate: 44100 Hz
Channels: 2
Bits per sample: 16
Bitrate: 907 kbps
Codec: FLAC
================================================================================



All thanks to original releaser - alekow