VA - Posse (Soundtrack) (1993)


VA - Posse (Soundtrack) (1993)
EAC Rip | FLAC with CUE and log | scans | 340 mb
MP3 CBR 320kbps | RAR | 121 mb
Genre: R&B, soul, hip-hop, rap

Posse is the 1993 soundtrack CD to the movie directed by and starring Mario Van Peebles. The soundtrack featured a mixture of current R&B and soul artists plus some hip-hop, all exclusive to the disc. It also includes a song from actress Salli Richardson, who also starred in the film.


1. Intelligent Hoodlum - Posse (Shoot 'Em Up)
2. Tone Loc - Posse Love
3. B.B.O.T.I. (Badd Boyz Of The Industry) - One Night Of Freedom
4. Melvin Van Peebles - Cruel Jim Crow (Posse Don't Play That)
5. Top Choice Clique - I Think To Myself
6. Michel Colombier - Jesse
7. Vesta (Williams) - Tell Me
8. David + David - Free At Last
9. Salli Richardson - If I Knew You At All
10. The Sounds Of Blackness - Freemanville (Homecoming)
11. Vesta (Williams) - Ride Of Your Life
12. The Neville Brothers - Let The Hammer Fall



Exact Audio Copy V1.1 from 23. June 2015

EAC extraction logfile from 6. January 2016, 11:08

Various Artists / Posse (Soundtrack)

Used drive : TEAC DVD-ROM DV-28SW Adapter: 1 ID: 0

Read mode : Secure
Utilize accurate stream : Yes
Defeat audio cache : Yes
Make use of C2 pointers : No

Read offset correction : 6
Overread into Lead-In and Lead-Out : No
Fill up missing offset samples with silence : Yes
Delete leading and trailing silent blocks : No
Null samples used in CRC calculations : Yes
Used interface : Native Win32 interface for Win NT & 2000
Gap handling : Left out

Used output format : Internal WAV Routines
Sample format : 44.100 Hz; 16 Bit; Stereo


TOC of the extracted CD

Track | Start | Length | Start sector | End sector
––––––––––––––––––––––––––––-
1 | 0:00.00 | 4:19.50 | 0 | 19474
2 | 4:19.50 | 5:48.18 | 19475 | 45592
3 | 10:07.68 | 4:21.60 | 45593 | 65227
4 | 14:29.53 | 4:32.10 | 65228 | 85637
5 | 19:01.63 | 4:15.05 | 85638 | 104767
6 | 23:16.68 | 3:40.30 | 104768 | 121297
7 | 26:57.23 | 4:50.10 | 121298 | 143057
8 | 31:47.33 | 5:37.00 | 143058 | 168332
9 | 37:24.33 | 4:43.25 | 168333 | 189582
10 | 42:07.58 | 4:28.35 | 189583 | 209717
11 | 46:36.18 | 4:25.60 | 209718 | 229652
12 | 51:02.03 | 4:10.35 | 229653 | 248437


Track 1

Filename C:My DocumentsMy FLACVA - Posse (Soundtrack) (1993) [FLAC]1 - Intelligent Hoodlum - The Posse (Shoot Em Up).wav

Pre-gap length 0:00:02.00

Peak level 95.3 %
Extraction speed 2.4 X
Track quality 99.9 %
Test CRC B352F3BD
Copy CRC B352F3BD
Track not fully ripped for AccurateRip lookup
Copy OK

Track 2

Filename C:My DocumentsMy FLACVA - Posse (Soundtrack) (1993) [FLAC]2 - Tone Loc - Posse Love.wav

Pre-gap length 0:00:01.52

Peak level 95.3 %
Extraction speed 3.3 X
Track quality 100.0 %
Test CRC 349C9649
Copy CRC 349C9649
Track not fully ripped for AccurateRip lookup
Copy OK

Track 3

Filename C:My DocumentsMy FLACVA - Posse (Soundtrack) (1993) [FLAC]3 - B.B.O.T.Z. (Badd Boyz Of The Industry) - One Night Of Freedom.wav

Pre-gap length 0:00:01.03

Peak level 95.3 %
Extraction speed 3.5 X
Track quality 100.0 %
Test CRC BC9963E7
Copy CRC BC9963E7
Track not fully ripped for AccurateRip lookup
Copy OK

Track 4

Filename C:My DocumentsMy FLACVA - Posse (Soundtrack) (1993) [FLAC]4 - Melvin Van Peebles - Posse Don't Play That.wav

Pre-gap length 0:00:00.43

Peak level 95.3 %
Extraction speed 3.8 X
Track quality 100.0 %
Test CRC 028FF1CF
Copy CRC 028FF1CF
Track not fully ripped for AccurateRip lookup
Copy OK

Track 5

Filename C:My DocumentsMy FLACVA - Posse (Soundtrack) (1993) [FLAC]5 - Top Choice Clique - I Think To Myself.wav

Pre-gap length 0:00:00.48

Peak level 95.3 %
Extraction speed 3.4 X
Track quality 99.9 %
Test CRC 81514150
Copy CRC 81514150
Track not fully ripped for AccurateRip lookup
Copy OK

Track 6

Filename C:My DocumentsMy FLACVA - Posse (Soundtrack) (1993) [FLAC]6 - Michael Colombier - Jesse.wav

Pre-gap length 0:00:00.60

Peak level 95.3 %
Extraction speed 4.1 X
Track quality 100.0 %
Test CRC 6BB9758D
Copy CRC 6BB9758D
Track not fully ripped for AccurateRip lookup
Copy OK

Track 7

Filename C:My DocumentsMy FLACVA - Posse (Soundtrack) (1993) [FLAC]7 - Vesta - Tell Me.wav

Pre-gap length 0:00:00.40

Peak level 95.3 %
Extraction speed 3.9 X
Track quality 99.9 %
Test CRC 12CA8CC9
Copy CRC 12CA8CC9
Track not fully ripped for AccurateRip lookup
Copy OK

Track 8

Filename C:My DocumentsMy FLACVA - Posse (Soundtrack) (1993) [FLAC]8 - David + David - Free At Last.wav

Pre-gap length 0:00:01.23

Peak level 95.3 %
Extraction speed 4.8 X
Track quality 100.0 %
Test CRC E0F0F801
Copy CRC E0F0F801
Track not fully ripped for AccurateRip lookup
Copy OK

Track 9

Filename C:My DocumentsMy FLACVA - Posse (Soundtrack) (1993) [FLAC]9 - Salli Richardson - If I Knew You At All.wav

Pre-gap length 0:00:00.63

Peak level 95.3 %
Extraction speed 5.0 X
Track quality 100.0 %
Test CRC DEE02B0C
Copy CRC DEE02B0C
Track not fully ripped for AccurateRip lookup
Copy OK

Track 10

Filename C:My DocumentsMy FLACVA - Posse (Soundtrack) (1993) [FLAC]10 - The Sounds Of Blackness - Freemanville (Homecoming).wav

Pre-gap length 0:00:01.00

Peak level 95.3 %
Extraction speed 5.1 X
Track quality 100.0 %
Test CRC B0445EFE
Copy CRC B0445EFE
Track not fully ripped for AccurateRip lookup
Copy OK

Track 11

Filename C:My DocumentsMy FLACVA - Posse (Soundtrack) (1993) [FLAC]11 - Vesta - Ride Of Your Life.wav

Pre-gap length 0:00:00.63

Peak level 95.3 %
Extraction speed 5.3 X
Track quality 100.0 %
Test CRC 8E7B1B20
Copy CRC 8E7B1B20
Track not fully ripped for AccurateRip lookup
Copy OK

Track 12

Filename C:My DocumentsMy FLACVA - Posse (Soundtrack) (1993) [FLAC]12 - The Neville Brothers - Let The Hammer Fall.wav

Pre-gap length 0:00:01.18

Peak level 95.3 %
Extraction speed 5.4 X
Track quality 100.0 %
Test CRC 6E74898B
Copy CRC 6E74898B
Accurately ripped (confidence 2) [90F9C96E] (AR v2)
Copy OK


1 track(s) accurately ripped
11 track(s) not fully ripped for AccurateRip lookup

Some tracks could not be verified as accurate

No errors occurred

End of status report

==== Log checksum 08C1F30F61600745754F7749C5EB430E299452ACA4D81EDC7D6A8C46D2C0F120 ====
http://www.nitroflare.com/view/7240AEC703A352E/P0553-5DTK_lggEFL4C.rar
http://www.nitroflare.com/view/4DF94E6CBBE38C9/P0553-5DTK_lggEMPE.rar