Gentleman & The Evolution - Rockpalast • SummerJam Festival (2013)


Gentleman & The Evolution - Rockpalast • SummerJam Festival (2013)
HDTV 720p | TS | MPEG4 Video (H264) 1280x720 50fps 12.9 Mbps | Audio: Dolby AC3 48000Hz stereo 448kbps | 7.72 GB
Reggae, roots reggae, dancehall | Length: 01:18:32 | Uploaded/Uploadable/Bitshare/Freakshare/Nitroflare


Tilmann Otto (born April 19, 1974 in Osnabrück, Germany), better known by his stage name Gentleman, is a German reggae musician.
Gentleman lives in the Neubrück area of Cologne. He is the son of a Lutheran pastor. He is the father of two children, named Samuel and Tamica, and is married to Tamika, a background singer of the Far East Band, which has been supporting him since his first concert tour of Germany in 2002.





Tracklist
01.I Keep Going
02.The Journey
03.Different Places
04.Lonely Days
05.Intoxication
06.It No Pretty
07.Fire Ago Bun Dem
08.I Found Heaven
09.Sin City
10.Walk Away
11.Leave Us Alone
12.Runaway
13.Journey To Jan
14.World Gone Mad (feat.Alborosie & Richie Stephens)
15.Dem Gone
16.Superior
17.Heart Of Rub-A-Dub
18.Memories

General
ID : 1 (0x1)
Complete name : L:Gentleman & The Evolution - SummerJam Festival 2013.ts
Format : MPEG-TS
File size : 7.72 GiB
Duration : 1h 18mn
Overall bit rate mode : Variable
Overall bit rate : 14.1 Mbps
Video
ID : 5411 (0x1523)
Menu ID : 1 (0x1)
Format : AVC
Format/Info : Advanced Video Codec
Format profile : High@L4.0
Format settings, CABAC : Yes
Format settings, ReFrames : 4 frames
Codec ID : 27
Duration : 1h 18mn
Bit rate : 12.9 Mbps
Width : 1 280 pixels
Height : 720 pixels
Display aspect ratio : 16:9
Frame rate : 50.000 fps
Color space : YUV
Chroma subsampling : 4:2:0
Bit depth : 8 bits
Scan type : Progressive
Bits/(Pixel*Frame) : 0.280
Stream size : 7.09 GiB (92%)
Audio
ID : 5416 (0x1528)
Menu ID : 1 (0x1)
Format : AC-3
Format/Info : Audio Coding 3
Mode extension : CM (complete main)
Format settings, Endianness : Big
Codec ID : 6
Duration : 1h 18mn
Bit rate mode : Constant
Bit rate : 448 Kbps
Channel(s) : 2 channels
Channel positions : Front: L R
Sampling rate : 48.0 KHz
Bit depth : 16 bits
Compression mode : Lossy
Stream size : 252 MiB (3%)
Language : German


Thanks to meloman67