Incognito - Bees + Things + Flowers (2006)


Incognito - Bees + Things + Flowers (2006)
EAC Rip | FLAC with CUE and log | scans | 316 mb
MP3 CBR 320kbps | RAR | 119 mb
Genre: jazz, soul

Bees + Things + Flowers is the 2006 CD by British jazz group Incognito. Lead by Jean-Paul Maunick, the album features covers of jazz and soul cuts from the 1970's, including tracks by America, Earth, Wind & Fire, Roy Ayers, and Quincy Jones' arrangement of The Lovin' Spoonful's "Summer In The City", plus a number of Incognito originals. The CD went as high as #8 on Billboard's Jazz Albums chart. This was released on Dôme/Narada Jazz/EMI.


1. Everybody Loves The Sunshine (4:16)
2. Everyday (4:06)
3. Summer In The City (4:46)
4. Always There (2:30)
5. Raise (3:19)
6. Still A Friend Of Mine (5:40)
7. Tin Man (3:29)
8. Crave (5:32)
9. Deep Waters (4:59)
10. You Are Golden (3:53)
11. That's The Way Of The World (8:58)



Exact Audio Copy V1.1 from 23. June 2015

EAC extraction logfile from 8. January 2016, 11:30

Incognito / Bees + Things + Flowers

Used drive : TEAC DVD-ROM DV-28SW Adapter: 1 ID: 0

Read mode : Secure
Utilize accurate stream : Yes
Defeat audio cache : Yes
Make use of C2 pointers : No

Read offset correction : 6
Overread into Lead-In and Lead-Out : No
Fill up missing offset samples with silence : Yes
Delete leading and trailing silent blocks : No
Null samples used in CRC calculations : Yes
Used interface : Native Win32 interface for Win NT & 2000
Gap handling : Left out

Used output format : Internal WAV Routines
Sample format : 44.100 Hz; 16 Bit; Stereo


TOC of the extracted CD

Track | Start | Length | Start sector | End sector
––––––––––––––––––––––––––––-
1 | 0:00.00 | 4:17.28 | 0 | 19302
2 | 4:17.28 | 4:05.44 | 19303 | 37721
3 | 8:22.72 | 4:45.74 | 37722 | 59170
4 | 13:08.71 | 2:30.24 | 59171 | 70444
5 | 15:39.20 | 3:18.70 | 70445 | 85364
6 | 18:58.15 | 5:39.68 | 85365 | 110857
7 | 24:38.08 | 3:28.71 | 110858 | 126528
8 | 28:07.04 | 5:32.43 | 126529 | 151471
9 | 33:39.47 | 4:58.67 | 151472 | 173888
10 | 38:38.39 | 3:52.55 | 173889 | 191343
11 | 42:31.19 | 9:00.46 | 191344 | 231889


Track 1

Filename C:My DocumentsMy FLACIncognito - Bees + Things + Flowers (2006) [FLAC]1 - Everybody Loves The Sunshine.wav

Pre-gap length 0:00:02.00

Peak level 98.9 %
Extraction speed 2.8 X
Track quality 100.0 %
Test CRC F8ABB8EA
Copy CRC F8ABB8EA
Accurately ripped (confidence 6) [81FE57E5] (AR v2)
Copy OK

Track 2

Filename C:My DocumentsMy FLACIncognito - Bees + Things + Flowers (2006) [FLAC]2 - Everyday.wav

Peak level 98.9 %
Extraction speed 3.0 X
Track quality 100.0 %
Test CRC 24225688
Copy CRC 24225688
Accurately ripped (confidence 6) [5F3595B0] (AR v2)
Copy OK

Track 3

Filename C:My DocumentsMy FLACIncognito - Bees + Things + Flowers (2006) [FLAC]3 - Summer In The City.wav

Peak level 98.9 %
Extraction speed 3.4 X
Track quality 100.0 %
Test CRC 9FB6C4F0
Copy CRC 9FB6C4F0
Accurately ripped (confidence 6) [AA40DB0E] (AR v2)
Copy OK

Track 4

Filename C:My DocumentsMy FLACIncognito - Bees + Things + Flowers (2006) [FLAC]4 - Always There.wav

Peak level 98.9 %
Extraction speed 3.2 X
Track quality 100.0 %
Test CRC 65638F73
Copy CRC 65638F73
Accurately ripped (confidence 6) [645BC8B3] (AR v2)
Copy OK

Track 5

Filename C:My DocumentsMy FLACIncognito - Bees + Things + Flowers (2006) [FLAC]5 - Raise.wav

Peak level 98.9 %
Extraction speed 3.7 X
Track quality 100.0 %
Test CRC 6443EDA7
Copy CRC 6443EDA7
Accurately ripped (confidence 6) [D6445A50] (AR v2)
Copy OK

Track 6

Filename C:My DocumentsMy FLACIncognito - Bees + Things + Flowers (2006) [FLAC]6 - Still A Friend Of Mine.wav

Peak level 98.9 %
Extraction speed 4.1 X
Track quality 100.0 %
Test CRC 6627CE0E
Copy CRC 6627CE0E
Accurately ripped (confidence 5) [89AAC670] (AR v2)
Copy OK

Track 7

Filename C:My DocumentsMy FLACIncognito - Bees + Things + Flowers (2006) [FLAC]7 - Tin Man.wav

Peak level 98.9 %
Extraction speed 4.1 X
Track quality 100.0 %
Test CRC CA4B3FC5
Copy CRC CA4B3FC5
Accurately ripped (confidence 6) [6C224D84] (AR v2)
Copy OK

Track 8

Filename C:My DocumentsMy FLACIncognito - Bees + Things + Flowers (2006) [FLAC]8 - Crave.wav

Peak level 98.9 %
Extraction speed 3.2 X
Track quality 100.0 %
Test CRC B935CBD1
Copy CRC B935CBD1
Accurately ripped (confidence 6) [3BD7622D] (AR v2)
Copy OK

Track 9

Filename C:My DocumentsMy FLACIncognito - Bees + Things + Flowers (2006) [FLAC]9 - Deep Waters.wav

Peak level 98.9 %
Extraction speed 3.4 X
Track quality 100.0 %
Test CRC 941EA122
Copy CRC 941EA122
Accurately ripped (confidence 6) [723A6F95] (AR v2)
Copy OK

Track 10

Filename C:My DocumentsMy FLACIncognito - Bees + Things + Flowers (2006) [FLAC]10 - You Are Golden.wav

Peak level 98.9 %
Extraction speed 2.8 X
Track quality 99.9 %
Test CRC C3A18227
Copy CRC C3A18227
Accurately ripped (confidence 6) [9A157E03] (AR v2)
Copy OK

Track 11

Filename C:My DocumentsMy FLACIncognito - Bees + Things + Flowers (2006) [FLAC]11 - That's The Way Of The World.wav

Peak level 98.9 %
Extraction speed 4.8 X
Track quality 100.0 %
Test CRC 714B1DCF
Copy CRC 714B1DCF
Accurately ripped (confidence 6) [50910DEB] (AR v2)
Copy OK


All tracks accurately ripped

No errors occurred

End of status report

–– CUETools DB Plugin V2.1.6

[CTDB TOCID: OJ4sAarWBHfp7Oeb5oDUb827EFE-] found
Submit result: OJ4sAarWBHfp7Oeb5oDUb827EFE- has been confirmed
Track | CTDB Status
1 | (12/12) Accurately ripped
2 | (12/12) Accurately ripped
3 | (12/12) Accurately ripped
4 | (12/12) Accurately ripped
5 | (12/12) Accurately ripped
6 | (12/12) Accurately ripped
7 | ( 9/12) Accurately ripped, or (3/12) differs in 3294 samples @01:39:40,01:41:73,01:42:29,01:42:59,01:42:74-01:43:00,01:43:14-01:43:15,01:43:29-01:43:30,01:43:45,01:43:60-01:43:61,01:44:00-01:44:01,01:44:16,01:44:31-01:44:32,01:44:46-01:44:47,01:44:61,01:45:02,01:45:32-01:45:33,01:45:47-01:45:48,01:45:63,01:46:03-01:46:04,01:46:18-01:46:19,01:46:34,01:46:49-01:46:50,01:46:64-01:46:65,01:47:20-01:47:21,01:47:35,01:47:50-01:47:51,01:47:65-01:47:66,01:48:06-01:48:07,01:48:21,01:48:36-01:48:37,01:48:52-01:48:53,01:49:07-01:49:08,01:49:23,01:49:38,01:49:68-01:49:69,01:50:09,01:50:24-01:50:25,01:50:39-01:50:40,01:50:55,01:50:70-01:50:71,01:51:25-01:51:26,01:51:41,01:51:56-01:51:57,01:51:71-01:51:72,01:52:12,01:52:27-01:52:28,01:52:42-01:52:43,01:53:13-01:53:14,01:53:44,01:53:59-01:53:60,01:54:00,01:54:15,01:54:30-01:54:31,01:54:45,01:55:01,01:55:16-01:55:17,01:55:31-01:55:32,01:55:47-01:55:48,01:55:62-01:55:63,01:56:02-01:56:03,01:56:48-01:56:49,01:56:64,01:57:04-01:57:05,01:57:19-01:57:20,01:57:35,01:57:50,01:57:65-01:57:66,01:58:21,01:58:51-01:58:52,01:58:67,01:59:38,01:59:53-01:59:54,01:59:68-01:59:69,02:00:39-02:00:40,02:00:70-02:00:71,02:01:10,02:01:26,02:01:41,02:01:71-02:01:72,02:02:12-02:02:13,02:02:73-02:02:74,02:03:13-02:03:14,02:03:45,02:04:00,02:08:06-02:08:07,02:10:10,02:10:56,02:12:44
8 | (12/12) Accurately ripped
9 | (12/12) Accurately ripped
10 | (12/12) Accurately ripped
11 | (12/12) Accurately ripped


==== Log checksum 6B7DA506D25991A4331419EAFB3460C0350C451A4C254878AA96DF8966AE4A6A ====
http://www.nitroflare.com/view/70E7014C5D06C01/lNC0GNlTO-8TF_2OObFL4C.rar
http://www.nitroflare.com/view/16F774CD27366FD/lNC0GNlTO-8TF_2OObMPE.rar