The Misled Children/Odean Pope - The Misled Children Meet Odean Pope (2008)


The Misled Children/Odean Pope - The Misled Children Meet Odean Pope (2008)
EAC Rip | FLAC with CUE and log | scans | 178 mb
MP3 CBR 320kbps | RAR | 82 mb
Genre: jazz, soul, funk

The Misled Children Meet Odean Pope is the first collaborative album between The Misled Children and saxophonist Odean Pope. The Misled Children is a pseudonym for musician Logan Valencia, who may be more familiar to some under another pseudonym, Clutchy Hopkins. For your convenience, this was released on the Porter label.


1. Dadadun (4:16)
2. Four Track (3:45)
3. Foregone (3:53)
4. Grimey (3:21)
5. Laugh Track (4:04)
6. Misled Kid (3:59)
7. Odean Hopkins (2:11)
8. Ruff Seven (3:55)
9. Bananas Foster (4:08)
10. Uno (2:50)



Exact Audio Copy V1.1 from 23. June 2015

EAC extraction logfile from 8. January 2016, 10:34

The Misled Children/Odean Pope / The Misled Children Meet Odean Pope

Used drive : TEAC DVD-ROM DV-28SW Adapter: 1 ID: 0

Read mode : Secure
Utilize accurate stream : Yes
Defeat audio cache : Yes
Make use of C2 pointers : No

Read offset correction : 6
Overread into Lead-In and Lead-Out : No
Fill up missing offset samples with silence : Yes
Delete leading and trailing silent blocks : No
Null samples used in CRC calculations : Yes
Used interface : Native Win32 interface for Win NT & 2000
Gap handling : Left out

Used output format : Internal WAV Routines
Sample format : 44.100 Hz; 16 Bit; Stereo


TOC of the extracted CD

Track | Start | Length | Start sector | End sector
––––––––––––––––––––––––––––-
1 | 0:00.00 | 4:16.62 | 0 | 19261
2 | 4:16.62 | 3:45.69 | 19262 | 36205
3 | 8:02.56 | 3:53.68 | 36206 | 53748
4 | 11:56.49 | 3:21.71 | 53749 | 68894
5 | 15:18.45 | 4:04.72 | 68895 | 87266
6 | 19:23.42 | 3:59.16 | 87267 | 105207
7 | 23:22.58 | 2:11.08 | 105208 | 115040
8 | 25:33.66 | 3:55.65 | 115041 | 132730
9 | 29:29.56 | 4:08.18 | 132731 | 151348
10 | 33:37.74 | 2:50.53 | 151349 | 164151


Track 1

Filename C:My DocumentsMy FLACThe Misled Children, Odean Pope - The Misled Children Meet Odean Pope (2008) [FLAC]1 - Dadadun.wav

Pre-gap length 0:00:02.00

Peak level 100.0 %
Extraction speed 2.7 X
Track quality 100.0 %
Test CRC 2E2F1D85
Copy CRC 2E2F1D85
Accurately ripped (confidence 1) [6E7D3988] (AR v1)
Copy OK

Track 2

Filename C:My DocumentsMy FLACThe Misled Children, Odean Pope - The Misled Children Meet Odean Pope (2008) [FLAC]2 - Four Track.wav

Peak level 100.0 %
Extraction speed 3.1 X
Track quality 100.0 %
Test CRC E16311DC
Copy CRC E16311DC
Accurately ripped (confidence 1) [07B4BE6A] (AR v1)
Copy OK

Track 3

Filename C:My DocumentsMy FLACThe Misled Children, Odean Pope - The Misled Children Meet Odean Pope (2008) [FLAC]3 - Foregone.wav

Peak level 100.0 %
Extraction speed 3.4 X
Track quality 100.0 %
Test CRC 5EACF9CC
Copy CRC 5EACF9CC
Accurately ripped (confidence 1) [FC958C96] (AR v1)
Copy OK

Track 4

Filename C:My DocumentsMy FLACThe Misled Children, Odean Pope - The Misled Children Meet Odean Pope (2008) [FLAC]4 - Grimey.wav

Peak level 99.9 %
Extraction speed 3.5 X
Track quality 100.0 %
Test CRC 359574FA
Copy CRC 359574FA
Accurately ripped (confidence 1) [C00C6F5C] (AR v1)
Copy OK

Track 5

Filename C:My DocumentsMy FLACThe Misled Children, Odean Pope - The Misled Children Meet Odean Pope (2008) [FLAC]5 - Laugh Track.wav

Peak level 100.0 %
Extraction speed 3.9 X
Track quality 100.0 %
Test CRC 1649662D
Copy CRC 1649662D
Accurately ripped (confidence 1) [9803E7DD] (AR v1)
Copy OK

Track 6

Filename C:My DocumentsMy FLACThe Misled Children, Odean Pope - The Misled Children Meet Odean Pope (2008) [FLAC]6 - Misled Kid.wav

Peak level 100.0 %
Extraction speed 4.1 X
Track quality 100.0 %
Test CRC A6B2F5FA
Copy CRC A6B2F5FA
Accurately ripped (confidence 1) [3E6E227C] (AR v1)
Copy OK

Track 7

Filename C:My DocumentsMy FLACThe Misled Children, Odean Pope - The Misled Children Meet Odean Pope (2008) [FLAC]7 - Odean Hopkins.wav

Peak level 100.0 %
Extraction speed 2.8 X
Track quality 99.9 %
Test CRC 784487A8
Copy CRC 784487A8
Accurately ripped (confidence 1) [319023B8] (AR v1)
Copy OK

Track 8

Filename C:My DocumentsMy FLACThe Misled Children, Odean Pope - The Misled Children Meet Odean Pope (2008) [FLAC]8 - Ruff Seven.wav

Peak level 96.7 %
Extraction speed 4.1 X
Track quality 100.0 %
Test CRC 713328E9
Copy CRC 713328E9
Accurately ripped (confidence 1) [F5B7D15F] (AR v1)
Copy OK

Track 9

Filename C:My DocumentsMy FLACThe Misled Children, Odean Pope - The Misled Children Meet Odean Pope (2008) [FLAC]9 - Bananas Foster.wav

Peak level 100.0 %
Extraction speed 4.3 X
Track quality 100.0 %
Test CRC E7DB5122
Copy CRC E7DB5122
Accurately ripped (confidence 1) [12C73BDA] (AR v1)
Copy OK

Track 10

Filename C:My DocumentsMy FLACThe Misled Children, Odean Pope - The Misled Children Meet Odean Pope (2008) [FLAC]10 - Uno.wav

Peak level 100.0 %
Extraction speed 4.4 X
Track quality 100.0 %
Test CRC 31F49818
Copy CRC 31F49818
Accurately ripped (confidence 1) [C2A05BBB] (AR v1)
Copy OK


All tracks accurately ripped

No errors occurred

End of status report

–– CUETools DB Plugin V2.1.6

[CTDB TOCID: 7WnMvMcvU_IFb0wnRG2GDhotOYI-] found
Submit result: 7WnMvMcvU_IFb0wnRG2GDhotOYI- has been confirmed
Track | CTDB Status
1 | (1/1) Accurately ripped
2 | (1/1) Accurately ripped
3 | (1/1) Accurately ripped
4 | (1/1) Accurately ripped
5 | (1/1) Accurately ripped
6 | (1/1) Accurately ripped
7 | (1/1) Accurately ripped
8 | (1/1) Accurately ripped
9 | (1/1) Accurately ripped
10 | (1/1) Accurately ripped


==== Log checksum 0C85B6FAE4576EB53FD96F572410BBF96E8D80F5EA31B7EDFD72ED575A04CE22 ====
http://www.nitroflare.com/view/788D47AA50DC320/Ml5L3DCHlLDR3NM33T0D34NP0P3_2OOBFL4C.rar
http://www.nitroflare.com/view/759EBB61834603D/Ml5L3DCHlLDR3NM33T0D34NP0P3_2OOBMPE.rar