The Radiant Voice of Barbara Bonney


The Radiant Voice of Barbara Bonney
Classical | EAC | FLAC, CUE, LOG | Scans | 319 MB
Released: 2001 | Label: Decca

Of all the laudatory epithets applicable to Barbara Bonney, “radiant” might not be the one that springs to mindat least, not insofar as it suggests the warm luxuriance of sunshine. Bonney’s light, bright lyric soprano is something else: a voice of delicate refinement and transparent, pure-toned beauty. But it’s capable of silkily seductive textures too; and there are wonderful examples on this compilation disc that, if featuring a less well-established artist, might qualify as a demo tape. Most of the tracks are previously issued but together they define her capabilities and home-base repertory, from Bach, Purcell and Mozart through to Scandinavian song and Richard Strauss.
With “Morgen”, “Solveigs Sang”, “The Presentation of the Rose” from Der Rosenkavalier and “Ach, ich Fuhls” from The Magic Flute, this is a catalogue of silver, if not golden moments. Jewel-like singing and pure joy to hear. –Michael White .

Tracklist:
1. Come againe, sweet love doth now envite (John Dowland, 1562-1626) (2:40)
2. Thy hand, Belinda… when I am laid in earth (Henry Purcell, 1659-1695) (4:37)
3. Heute noch (Johann Sebastian Bach, 1685-1750) (6:44)
4. Stabat Mater dolorosa (Gio Battista Pergolesi, 1710-1736) (4:10)
5. Alleluja (Wolfgang Amadeus Mozart, 1756-1791) (2:42)
6. Laudate Dominum (Wolfgang Amadeus Mozart) (4:56)
7. Deh, Vieni, Non Tardar (Wolfgang Amadeus Mozart, 1756-1791) (2:42)
8. Ach, ich fuhl's, es ist verschwunden (Wolfgang Amadeus Mozart, 1756-1791) (3:27)
9. Chiedi all' aura lusinghiera (Gaetano Donizetti, 1797-1848) (6:52)
10. Mondnacht (Robert Schumann, 1810-1856) (3:45)
11. Solvejg's song (Edvard Grieg, 1843-1907) (4:58)
12. Was it a dream ? (Jean Sibelius, 1865-1957) (1:49)
13. Maiden's tryst (Jean Sibelius, 1865-1957) (2:41)
14. Morgen (Richard Strauss, 1864-1949) (4:01)
15. Die nachtigall (Alban Berg, 1885-1935) (7:20)
16. Mir ist…"Rose Presentation" (Richard Strauss, 1864-1949) (2:12)
17. In trutina (Carl Orff, 1895-1982) (2:29)
18. Requiem- Pie Jesu (Andrew Lloyd Webber, 1948) (2:59)
19. Vocalise (Andre Previn, 1929) (4:44)

Performer:
Andreas Scholl (4)
Gosta Winbergh (9)
Susan Graham (15)
Athony Way (18)

Exact Audio Copy V0.99 prebeta 5 from 4. May 2009

EAC extraction logfile from 25. October 2010, 10:04

Barbara Bonney / The radient voice of Barbara Bonney

Used drive : _NEC DVD_RW ND-4550A Adapter: 4 ID: 0

Read mode : Secure
Utilize accurate stream : Yes
Defeat audio cache : Yes
Make use of C2 pointers : No

Read offset correction : 48
Overread into Lead-In and Lead-Out : No
Fill up missing offset samples with silence : Yes
Delete leading and trailing silent blocks : No
Null samples used in CRC calculations : Yes
Used interface : Native Win32 interface for Win NT & 2000

Used output format : User Defined Encoder
Selected bitrate : 1024 kBit/s
Quality : High
Add ID3 tag : No
Command line compressor : D:Program FilesExact Audio CopyFLACFLAC.EXE
Additional command line options : -0 -V -T "ARTIST=%a" -T "TITLE=%t" -T "ALBUM=%g" -T "DATE=%y" -T "TRACKNUMBER=%n" -T "GENRE=%m" -T "COMMENT=%e" %s -o %d


TOC of the extracted CD

Track | Start | Length | Start sector | End sector
––––––––––––––––––––––––––––-
1 | 0:00.00 | 2:40.50 | 0 | 12049
2 | 2:40.50 | 4:37.37 | 12050 | 32861
3 | 7:18.12 | 6:44.36 | 32862 | 63197
4 | 14:02.48 | 4:10.64 | 63198 | 82011
5 | 18:13.37 | 2:36.08 | 82012 | 93719
6 | 20:49.45 | 4:56.05 | 93720 | 115924
7 | 25:45.50 | 2:45.31 | 115925 | 128330
8 | 28:31.06 | 3:27.61 | 128331 | 143916
9 | 31:58.67 | 6:52.30 | 143917 | 174846
10 | 38:51.22 | 3:45.50 | 174847 | 191771
11 | 42:36.72 | 4:58.15 | 191772 | 214136
12 | 47:35.12 | 1:48.74 | 214137 | 222310
13 | 49:24.11 | 2:41.01 | 222311 | 234386
14 | 52:05.12 | 4:01.04 | 234387 | 252465
15 | 56:06.16 | 7:20.24 | 252466 | 285489
16 | 63:26.40 | 2:12.55 | 285490 | 295444
17 | 65:39.20 | 2:29.66 | 295445 | 306685
18 | 68:09.11 | 2:59.14 | 306686 | 320124
19 | 71:08.25 | 4:44.01 | 320125 | 341425


Range status and errors

Selected range

Filename D:Documents and SettingsDimalehDesktopBarbara BonneyBarbara Bonney - The radient voice of Barbara Bonney.wav

Peak level 100.0 %
Range quality 100.0 %
Copy CRC D708DAC6
Copy OK

No errors occurred


AccurateRip summary

Track 1 cannot be verified as accurate (confidence 7) [B42545CF], AccurateRip returned [889F2E77]
Track 2 cannot be verified as accurate (confidence 7) [D366FF71], AccurateRip returned [F57D37C9]
Track 3 cannot be verified as accurate (confidence 7) [8975B49C], AccurateRip returned [AF89D204]
Track 4 cannot be verified as accurate (confidence 7) [A5B99D03], AccurateRip returned [2F2C8D7B]
Track 5 cannot be verified as accurate (confidence 7) [E8DA2BAC], AccurateRip returned [3F8D4404]
Track 6 cannot be verified as accurate (confidence 7) [EA942DF3], AccurateRip returned [63631F93]
Track 7 cannot be verified as accurate (confidence 7) [796D9AF0], AccurateRip returned [79EEE7A0]
Track 8 cannot be verified as accurate (confidence 7) [A33AB240], AccurateRip returned [83F506D8]
Track 9 cannot be verified as accurate (confidence 7) [42894497], AccurateRip returned [7232F7B7]
Track 10 cannot be verified as accurate (confidence 7) [CFC40D0E], AccurateRip returned [93F814C6]
Track 11 cannot be verified as accurate (confidence 7) [ECA858DE], AccurateRip returned [149ECC66]
Track 12 cannot be verified as accurate (confidence 7) [A182C9B2], AccurateRip returned [DA6FCA92]
Track 13 cannot be verified as accurate (confidence 7) [B3AB539B], AccurateRip returned [4BCA1703]
Track 14 cannot be verified as accurate (confidence 7) [7991EAF7], AccurateRip returned [0535D3AD]
Track 15 cannot be verified as accurate (confidence 5) [56E165F2], AccurateRip returned [14DA8738]
Track 16 cannot be verified as accurate (confidence 7) [9AF660BE], AccurateRip returned [24C5D0A6]
Track 17 cannot be verified as accurate (confidence 7) [91EED4D7], AccurateRip returned [584497D7]
Track 18 cannot be verified as accurate (confidence 7) [0F989427], AccurateRip returned [A607586F]
Track 19 cannot be verified as accurate (confidence 7) [7C24A18E], AccurateRip returned [AF300A5E]

No tracks could be verified as accurate
You may have a different pressing from the one(s) in the database

End of status report