Eberhard Weber - The Colours Of Chloe (1974) {ECM 1042}


Eberhard Weber - The Colours Of Chloe (1974) {ECM 1042}
EAC 0.99pb4 | FLAC Image level 8 | Cue+Log | Full Scans 300dpi | 183MB + 5% Recovery
Genre: Fusion

Eberhard Weber's first record remains his most well-known and influential. An ambitious work of what might be called symphonic jazz, The Colours of Chloë helped to define the ECM sound – picturesque, romantic, at times rhythmically involved, at others minimalistic and harmonically abstruse. Weber at various points combines strings, choir, synthesizer, and small jazz ensemble. It's a brew that can bring to mind some of the progressive rock and fusion of the era, although Weber's vision is a good deal more idiosyncratic than that.
Track List
01. More Colours (Weber) 6:39
02. The Colours of Chloe (Weber) 7:45
03. An Evening With Vincent Van Ritz (Weber) 5:46
04. No Motion Picture (Weber) 19:32

musicians
Eberhard Weber - bass, cello, ocarina
Rainer Bruninghaus - piano, synthesizer
Peter Giger - drums, percussion
Ralf Hubner - drums
Ack Van Rooyen - fluegelhorn
Gisela Schauble - vocals
Cellos of the Sudfunk Orchestra, Stuttgart

Produced by Manfred Eicher


Exact Audio Copy V0.99 prebeta 4 from 23. January 2008

EAC extraction logfile from 28. April 2009, 0:07

Eberhard Weber / The Colours Of Chloл

Used drive : PLEXTOR DVDR PX-800A Adapter: 1 ID: 1

Read mode : Secure
Utilize accurate stream : Yes
Defeat audio cache : Yes
Make use of C2 pointers : No

Read offset correction : 48
Overread into Lead-In and Lead-Out : No
Fill up missing offset samples with silence : Yes
Delete leading and trailing silent blocks : No
Null samples used in CRC calculations : Yes
Used interface : Installed external ASPI interface

Used output format : Internal WAV Routines
Sample format : 44.100 Hz; 16 Bit; Stereo


TOC of the extracted CD

Track | Start | Length | Start sector | End sector
––––––––––––––––––––––––––––-
1 | 0:00.32 | 6:44.50 | 32 | 30381
2 | 6:45.07 | 7:49.33 | 30382 | 65589
3 | 14:34.40 | 5:51.72 | 65590 | 91986
4 | 20:26.37 | 19:32.55 | 91987 | 179941


Range status and errors

Selected range

Filename G:Eberhard Webwe - The Colours Of ChloeThe Colours Of Chloe.wav

Peak level 83.6 %
Range quality 99.9 %
Copy CRC 13FCAB2F
Copy OK

No errors occurred


AccurateRip summary

Track 1 not present in database
Track 2 not present in database
Track 3 not present in database
Track 4 not present in database

None of the tracks are present in the AccurateRip database

End of status report


––––––––––––––––––––––––––––––––––––––––
Analyzed: Eberhard Weber / The Colours Of Chloe
––––––––––––––––––––––––––––––––––––––––

DR Peak RMS Duration Track
––––––––––––––––––––––––––––––––––––––––
DR11 -4.22 dB -18.89 dB 6:45 01-More Colours
DR12 -2.99 dB -18.30 dB 7:49 02-The Colours Of Chloe
DR11 -1.55 dB -15.21 dB 5:52 03-An Evening With Vincent Van Ritz
DR10 -3.60 dB -16.68 dB 19:33 04-No Motion Picture
––––––––––––––––––––––––––––––––––––––––

Number of tracks: 4
Official DR value: DR11

Samplerate: 44100 Hz
Channels: 2
Bits per sample: 16
Bitrate: 627 kbps
Codec: FLAC
================================================================================



Rip by gorall007