Optical Image - 2 Studio Albums (1993-1997)


Optical Image - 2 Studio Albums (1993-1997)
EAC Rip | FLAC (image+.cue+log) - 838 MB | MP3 CBR 320 kbps (LAME 3.93) - 296 MB | Covers - 62 MB
Genre: Electronic, Ambient | RAR 3% Rec. | Label: Bargain Productions, Soundart Productions

Optical Image is Dutch composer Tom Habes. His music has been used extensively for film and television productions both in the Netherlands and abroad. In 1986 Tom Habes started his music career with electronic music. Under the stage name Optical Image he released several albums such as Treasure Point, Inteference, Point of No Return, Another Treasure Point, Back to Basics, and Moonchild. Under his own name he later released The Other Side and Sudden Exposure. In 1996 he recieved the first place award for best music at the Pangolin Lasershow in the United States.


Optical Image - Treasure Point (1993)
EAC Rip | FLAC (image+.cue+log) - 477 MB | MP3 CBR 320 kbps (LAME 3.93) - 168 MB | Covers - 30 MB
Genre: Electronic, Ambient | RAR 3% Rec. | Label: Bargain Productions (BP 9301)

Tracklist:
01. Treasure Point
02. Aspiration
03. Art of an Era
04. Miracles
05. Recollection
06. Exhibition
07. Confession
08. Deliverance

Total time: 01:11:17

Exact Audio Copy V1.0 beta 1 from 15. November 2010

EAC extraction logfile from 19. March 2011, 19:06

Optical Image / Treasure Point

Used drive : HL-DT-STDVDRAM GT31N Adapter: 1 ID: 0

Read mode : Secure
Utilize accurate stream : Yes
Defeat audio cache : Yes
Make use of C2 pointers : No

Read offset correction : 103
Overread into Lead-In and Lead-Out : No
Fill up missing offset samples with silence : Yes
Delete leading and trailing silent blocks : No
Null samples used in CRC calculations : Yes
Used interface : Installed external ASPI interface

Used output format : Internal WAV Routines
Sample format : 44.100 Hz; 16 Bit; Stereo


TOC of the extracted CD

Track | Start | Length | Start sector | End sector
––––––––––––––––––––––––––––-
1 | 0:00.00 | 9:20.35 | 0 | 42034
2 | 9:20.35 | 8:47.58 | 42035 | 81617
3 | 18:08.18 | 13:42.52 | 81618 | 143319
4 | 31:50.70 | 8:44.63 | 143320 | 182682
5 | 40:35.58 | 5:50.00 | 182683 | 208932
6 | 46:25.58 | 13:39.20 | 208933 | 270377
7 | 60:05.03 | 6:42.22 | 270378 | 300549
8 | 66:47.25 | 4:29.65 | 300550 | 320789


Range status and errors

Selected range

Filename C:Remember The Old SequenceOptical Image - Treasure Point.wav

Peak level 100.0 %
Extraction speed 0.1 X
Range quality 100.0 %
Test CRC AA410D28
Copy CRC AA410D28
Copy OK

No errors occurred


AccurateRip summary

Track 1 accurately ripped (confidence 2) [A7BD661A]
Track 2 accurately ripped (confidence 2) [862A1E76]
Track 3 accurately ripped (confidence 2) [5C7E0DFF]
Track 4 accurately ripped (confidence 2) [C1AA9096]
Track 5 accurately ripped (confidence 2) [34FDFF6E]
Track 6 accurately ripped (confidence 2) [7146EDAD]
Track 7 accurately ripped (confidence 2) [81F88BE7]
Track 8 accurately ripped (confidence 2) [6C3FF7A7]

All tracks accurately ripped

End of status report

==== Log checksum 34737F28A28470C879752CBA8E542CAAFD13F97E9EC8F8D30EBBF6DCFEA27D36 ====

[CUETools log; Date: 20.01.2016 15:03:03; Version: 2.1.4]
[CTDB TOCID: RXe8c_XL0EjgyWJlDPJcPdpHw5Q-] found.
Track | CTDB Status
1 | (3/3) Accurately ripped
2 | (3/3) Accurately ripped
3 | (3/3) Accurately ripped
4 | (3/3) Accurately ripped
5 | (3/3) Accurately ripped
6 | (2/3) Accurately ripped
7 | (3/3) Accurately ripped
8 | (3/3) Accurately ripped
[AccurateRip ID: 0017a7e3-009c743e-6b10b508] found.
Track [ CRC | V2 ] Status
01 [a7bd661a|95be6b6f] (2+5/7) Accurately ripped
02 [862a1e76|373c1419] (2+5/7) Accurately ripped
03 [5c7e0dff|afc732fb] (2+5/7) Accurately ripped
04 [c1aa9096|ae0ebdd1] (2+5/7) Accurately ripped
05 [34fdff6e|b3324d11] (2+5/7) Accurately ripped
06 [7146edad|0fb63319] (2+4/6) Accurately ripped
07 [81f88be7|0f932099] (2+5/7) Accurately ripped
08 [6c3ff7a7|39fb5224] (2+5/7) Accurately ripped

Track Peak [ CRC32 ] [W/O NULL] [ LOG ]
– 100,0 [AA410D28] [01010F04] CRC32
01 100,0 [7B57CA68] [A6DE2484]
02 97,1 [96909F7C] [C9699F4A]
03 97,5 [1B2B16DF] [32072086]
04 91,8 [3F615C6B] [A7BFE186]
05 94,5 [AE2ACB46] [932C46B3]
06 100,0 [A63A7AFF] [1A622696]
07 100,0 [E4BDC21C] [9723384B]
08 89,0 [34674CD1] [8E5381D4]


Optical Image - Another Treasure Point (1997)
EAC Rip | FLAC (image+.cue+log) - 361 MB | MP3 CBR 320 kbps (LAME 3.93) - 128 MB | Covers - 32 MB
Genre: Electronic, Ambient | RAR 3% Rec. | Label: Soundart Productions (THCD 100697)

Tracklist:
01. Sequences
02. Discovery
03. Introspection
04. Art Of An Era Part II
05. Art Of Innocence
06. Human Impact
07. Gravity
08. Segregation

Total time: 54:33

Exact Audio Copy V1.0 beta 1 from 15. November 2010

EAC extraction logfile from 19. March 2011, 21:31

Optical Image / Another Treasure Point

Used drive : HL-DT-STDVDRAM GT31N Adapter: 1 ID: 0

Read mode : Secure
Utilize accurate stream : Yes
Defeat audio cache : Yes
Make use of C2 pointers : No

Read offset correction : 103
Overread into Lead-In and Lead-Out : No
Fill up missing offset samples with silence : Yes
Delete leading and trailing silent blocks : No
Null samples used in CRC calculations : Yes
Used interface : Installed external ASPI interface

Used output format : Internal WAV Routines
Sample format : 44.100 Hz; 16 Bit; Stereo


TOC of the extracted CD

Track | Start | Length | Start sector | End sector
––––––––––––––––––––––––––––-
1 | 0:00.00 | 9:22.15 | 0 | 42164
2 | 9:22.15 | 4:21.39 | 42165 | 61778
3 | 13:43.54 | 6:31.21 | 61779 | 91124
4 | 20:15.00 | 10:46.69 | 91125 | 139643
5 | 31:01.69 | 5:17.67 | 139644 | 163485
6 | 36:19.61 | 8:22.50 | 163486 | 201185
7 | 44:42.36 | 4:58.00 | 201186 | 223535
8 | 49:40.36 | 4:52.23 | 223536 | 245458


Range status and errors

Selected range

Filename C:Remember The Old SequenceOptical Image - Another Treasure Point.wav

Peak level 100.0 %
Extraction speed 0.1 X
Range quality 100.0 %
Test CRC 2D447D4F
Copy CRC 2D447D4F
Copy OK

No errors occurred


AccurateRip summary

Track 1 accurately ripped (confidence 1) [F8DD5239]
Track 2 accurately ripped (confidence 1) [2286686B]
Track 3 accurately ripped (confidence 1) [D2316B84]
Track 4 accurately ripped (confidence 1) [0A87D4DF]
Track 5 accurately ripped (confidence 1) [50178FD2]
Track 6 accurately ripped (confidence 1) [46466734]
Track 7 accurately ripped (confidence 1) [950FE777]
Track 8 accurately ripped (confidence 1) [49AD2115]

All tracks accurately ripped

End of status report

==== Log checksum A23097B1F6324B15937D8DC5C17B53605D2D7B3DB30431E01A69EC0DAADB3C7E ====

[CUETools log; Date: 20.01.2016 15:03:40; Version: 2.1.4]
[CTDB TOCID: usb_QFpvu2gEJ1SwcTe31IkuT4c-] found.
Track | CTDB Status
1 | (2/2) Accurately ripped
2 | (2/2) Accurately ripped
3 | (2/2) Accurately ripped
4 | (2/2) Accurately ripped
5 | (2/2) Accurately ripped
6 | (2/2) Accurately ripped
7 | (2/2) Accurately ripped
8 | (2/2) Accurately ripped
[AccurateRip ID: 0011d3fc-0075c871-720cc808] found.
Track [ CRC | V2 ] Status
01 [f8dd5239|aca5af84] (0+5/5) Accurately ripped
02 [2286686b|25aaaa13] (0+5/5) Accurately ripped
03 [d2316b84|76985080] (0+5/5) Accurately ripped
04 [0a87d4df|831f697e] (0+5/5) Accurately ripped
05 [50178fd2|57d633ba] (0+5/5) Accurately ripped
06 [46466734|bd58892c] (0+5/5) Accurately ripped
07 [950fe777|cb174a18] (0+5/5) Accurately ripped
08 [49ad2115|ff751cba] (0+5/5) Accurately ripped

Track Peak [ CRC32 ] [W/O NULL] [ LOG ]
– 100,0 [2D447D4F] [7B238FD5] CRC32
01 100,0 [C84CE772] [CC3B2BDB]
02 100,0 [C2AA27DE] [80FE1108]
03 99,9 [D98C44B9] [A8706F7B]
04 100,0 [00BB41F5] [4E9717DA]
05 100,0 [9C0D1937] [B0997E59]
06 100,0 [240627B3] [8C17884C]
07 91,7 [6F3F4427] [FC36589A]
08 88,4 [31AD7151] [7B3CEE8E]

Thanks to Key

Optical Image - Treasure Point (1993)

LOSSLESS:

_______________

MP3 320 kbps:

_______________

Covers:

______________________________________

Optical Image - Another Treasure Point (1997)

LOSSLESS:

_______________

MP3 320 kbps:

_______________

Covers: