Joey DeFrancesco - Trip Mode (2015) {HighNote}


Joey DeFrancesco - Trip Mode (2015) {HighNote}
EAC 1.1 | FLAC tracks level 8 | Cue+Log+M3U | Full Scans 300dpi | 403MB + 5% Recovery
Genre: Straight-Ahead Jazz, Post-Bop

Three-time Grammy nominee, master of the jazz organ, trumpeter and vocalist Joey DeFrancesco swings hard and straight ahead. A prodigious talent at an early age, he joined the Miles Davis band when he was seventeen. At eighteen, he began touring with his own quartet. At twenty-two, John Mclaughlin called him along with drummer Dennis Chambers to form the group “Free Spirits.” Subsequently, Joey worked with greats such as George Benson, James Moody and Ray Charles. He’s won the Downbeat Critics Poll ten times and the Readers Poll every year since 2005. His current trio with Dan Wilson guitar and Jason Brown drums promises to rock the house.
Track List
01. Trip Mode 4:31
02. Who Shot John 7:59
03. Arizona Sunrise 4:36
04. In That Order 6:39
05. Cuz U No 7:17
06. On Georgian Bay 7:02
07. The Touch Of Your Lips 5:50
08. Traffic Jam 7:15
09. What's Your Organ Player's Name? 7:13

musicians
Joey DeFrancesco - organ, piano, keyboards, trumpet, vocals
Jason Brown - drums
Dan Wilson - guitar on 1, 2, 4, 5, 8, 9
Mike Boone - bass on 3, 6, 7, 9

Produced by Joey DeFrancesco


Exact Audio Copy V1.1 from 23. June 2015

EAC extraction logfile from 30. December 2015, 0:28

Joey DeFrancesco / Trip Mode

Used drive : HL-DT-STDVD-RAM GH22NS30 Adapter: 2 ID: 0

Read mode : Secure
Utilize accurate stream : Yes
Defeat audio cache : Yes
Make use of C2 pointers : No

Read offset correction : 102
Overread into Lead-In and Lead-Out : Yes
Fill up missing offset samples with silence : Yes
Delete leading and trailing silent blocks : No
Null samples used in CRC calculations : Yes
Used interface : Installed external ASPI interface
Gap handling : Appended to previous track

Used output format : User Defined Encoder
Selected bitrate : 128 kBit/s
Quality : High
Add ID3 tag : No
Command line compressor : G:Program FilesExact Audio CopyEncoderflac.exe
Additional command line options : -V -8 -T "Genre=%genre%" -T "Artist=%artist%" -T "Title=%title%" -T "Album=%albumtitle%" -T "Date=%year%" -T "Tracknumber=%tracknr%" -T "Comment=EAC1.1 FLAC -8" %source%


TOC of the extracted CD

Track | Start | Length | Start sector | End sector
––––––––––––––––––––––––––––-
1 | 0:00.00 | 4:31.23 | 0 | 20347
2 | 4:31.23 | 7:58.70 | 20348 | 56267
3 | 12:30.18 | 4:36.04 | 56268 | 76971
4 | 17:06.22 | 6:38.74 | 76972 | 106895
5 | 23:45.21 | 7:16.66 | 106896 | 139661
6 | 31:02.12 | 7:02.18 | 139662 | 171329
7 | 38:04.30 | 5:50.12 | 171330 | 197591
8 | 43:54.42 | 7:14.57 | 197592 | 230198
9 | 51:09.24 | 7:13.34 | 230199 | 262707


Track 1

Filename F:WAV1 - Trip Mode.wav

Pre-gap length 0:00:02.00

Peak level 97.7 %
Extraction speed 4.9 X
Track quality 100.0 %
Test CRC 141C9EDC
Copy CRC 141C9EDC
Track not present in AccurateRip database
Copy OK

Track 2

Filename F:WAV2 - Who Shot John.wav

Peak level 97.7 %
Extraction speed 5.9 X
Track quality 100.0 %
Test CRC E5FB0FC3
Copy CRC E5FB0FC3
Track not present in AccurateRip database
Copy OK

Track 3

Filename F:WAV3 - Arizona Sunrise.wav

Peak level 93.3 %
Extraction speed 6.1 X
Track quality 100.0 %
Test CRC 91B034B0
Copy CRC 91B034B0
Track not present in AccurateRip database
Copy OK

Track 4

Filename F:WAV4 - In That Order.wav

Peak level 97.7 %
Extraction speed 6.8 X
Track quality 100.0 %
Test CRC 0FE066C6
Copy CRC 0FE066C6
Track not present in AccurateRip database
Copy OK

Track 5

Filename F:WAV5 - Cuz U No.wav

Peak level 97.7 %
Extraction speed 6.9 X
Track quality 99.9 %
Test CRC 604D0D75
Copy CRC 604D0D75
Track not present in AccurateRip database
Copy OK

Track 6

Filename F:WAV6 - On Georgian Bay.wav

Peak level 97.7 %
Extraction speed 7.8 X
Track quality 100.0 %
Test CRC 057CB384
Copy CRC 057CB384
Track not present in AccurateRip database
Copy OK

Track 7

Filename F:WAV7 - The Touch Of Your Lips.wav

Peak level 97.7 %
Extraction speed 8.0 X
Track quality 100.0 %
Test CRC 209CF9B5
Copy CRC 209CF9B5
Track not present in AccurateRip database
Copy OK

Track 8

Filename F:WAV8 - Traffic Jam.wav

Peak level 97.7 %
Extraction speed 8.4 X
Track quality 100.0 %
Test CRC 15DEE513
Copy CRC 15DEE513
Track not present in AccurateRip database
Copy OK

Track 9

Filename F:WAV9 - What's Your Organ Player's Name.wav

Peak level 97.7 %
Extraction speed 7.0 X
Track quality 100.0 %
Test CRC 71F1996C
Copy CRC 71F1996C
Track not present in AccurateRip database
Copy OK


None of the tracks are present in the AccurateRip database

No errors occurred

End of status report

==== Log checksum E4FC778648998558916F8D3F13C9A0FF1230E07A57B97B35279B4A377AFA7926 ====


––––––––––––––––––––––––––––––––––––––––
Analyzed: Joey DeFrancesco / Trip Mode
––––––––––––––––––––––––––––––––––––––––

DR Peak RMS Duration Track
––––––––––––––––––––––––––––––––––––––––
DR11 -0.20 dB -12.52 dB 4:31 01-Trip Mode
DR10 -0.20 dB -11.68 dB 7:59 02-Who Shot John
DR12 -0.60 dB -16.31 dB 4:36 03-Arizona Sunrise
DR11 -0.20 dB -12.99 dB 6:39 04-In That Order
DR10 -0.20 dB -12.29 dB 7:17 05-Cuz U No
DR11 -0.20 dB -14.83 dB 7:02 06-On Georgian Bay
DR12 -0.20 dB -16.50 dB 5:50 07-The Touch Of Your Lips
DR11 -0.20 dB -13.34 dB 7:15 08-Traffic Jam
DR11 -0.20 dB -13.23 dB 7:13 09-What's Your Organ Player's Name?
––––––––––––––––––––––––––––––––––––––––

Number of tracks: 9
Official DR value: DR11

Samplerate: 44100 Hz
Channels: 2
Bits per sample: 16
Bitrate: 924 kbps
Codec: FLAC
================================================================================



Rip by simple.i