Klaus Schulze - The Ultimate Edition (2000) [Box 1, Discs 1-10: Silver Edition] (Repost)


Klaus Schulze - The Ultimate Edition (2000) [Box 1, Discs 1-10: Silver Edition]
EAC Rip | FLAC (image+.cue+log) - 4,03 GB | MP3 CBR 320 kbps (LAME 3.93) - 1,78 GB | Covers - 109 MB
Genre: Electronic, Berlin School | RAR 3% Rec. | Label: Série Poème (Série Poème 2000)

In 1992 and '93 Klaus Schulze recorded ten hours of music, actually not intended for record release. The first set of ten CDs, Silver Edition was released on the 4th of November 1993, and the praise it immediately received was overwhelming. One year later the set was sold out. The present box is the first of five. Together it's 50 CDs of music by Klaus Schulze. It includes the former sets Silver Edition (10 CDs), Historic Edition (10 CDs), Jubilee Edition (25 CDs), and five new albums made especially as bonus for The Ultimate Edition.


CD 1: Klaus Shulze - Film Musik
EAC Rip | FLAC (image+.cue+log) - 367 MB | MP3 CBR 320 kbps (LAME 3.93) - 177 MB
Genre: Electronic, Berlin School | RAR 3% Rec. | Label: Série Poème (Série Poème 2000-1)

Tracklist:
01. Die Lieder des Prinzen Vogelfrei
02. Le Médaillon Magique
03. Schwermütiger Frühling
04. Der Optimismus

Total time: 01:15:09

Exact Audio Copy V0.99 prebeta 5 from 4. May 2009

EAC extraction logfile from 15. February 2010, 10:18

Klaus Schulze / Film Musik (The Ultimate Edition CD 1)

Used drive : TSSTcorpDVD+-RW TS-H653B Adapter: 1 ID: 0

Read mode : Secure
Utilize accurate stream : Yes
Defeat audio cache : Yes
Make use of C2 pointers : No

Read offset correction : 6
Overread into Lead-In and Lead-Out : No
Fill up missing offset samples with silence : Yes
Delete leading and trailing silent blocks : No
Null samples used in CRC calculations : Yes
Used interface : Native Win32 interface for Win NT & 2000

Used output format : User Defined Encoder
Selected bitrate : 1024 kBit/s
Quality : High
Add ID3 tag : No
Command line compressor : C:Program FilesExact Audio CopyFLACFLAC.EXE
Additional command line options : -6 -V -T "ARTIST=%a" -T "TITLE=%t" -T "ALBUM=%g" -T "DATE=%y" -T "TRACKNUMBER=%n" -T "GENRE=%m" -T "COMMENT=%e" %s -o %d


TOC of the extracted CD

Track | Start | Length | Start sector | End sector
––––––––––––––––––––––––––––-
1 | 0:00.00 | 28:30.00 | 0 | 128249
2 | 28:30.00 | 15:55.00 | 128250 | 199874
3 | 44:25.00 | 20:05.00 | 199875 | 290249
4 | 64:30.00 | 10:39.00 | 290250 | 338174


Range status and errors

Selected range

Filename D:UEKlaus Schulze - Film Musik (The Ultimate Edition CD 1).wav

Peak level 100.0 %
Range quality 100.0 %
Test CRC B762A962
Copy CRC B762A962
Copy OK

No errors occurred


AccurateRip summary

Track 1 accurately ripped (confidence 1) [CE669FB8]
Track 2 accurately ripped (confidence 1) [5042F4A2]
Track 3 accurately ripped (confidence 1) [7C6538E8]
Track 4 accurately ripped (confidence 1) [E92F2C13]

All tracks accurately ripped

End of status report

[CUETools log; Date: 08.01.2016 16:50:59; Version: 2.1.4]
[CTDB TOCID: vX8hjya9Fpo3cjNm8G8JyttE9nc-] found.
Track | CTDB Status
1 | (8/9) Accurately ripped
2 | (8/9) Accurately ripped
3 | (8/9) Accurately ripped
4 | (8/9) Accurately ripped
[AccurateRip ID: 000e9886-00389461-36119d04] found.
Track [ CRC | V2 ] Status
01 [ce669fb8|7dda0d9b] (07+03/17) Accurately ripped
02 [5042f4a2|73c0a049] (07+03/17) Accurately ripped
03 [7c6538e8|b6aa95bb] (07+03/17) Accurately ripped
04 [e92f2c13|72083dd8] (07+03/17) Accurately ripped
Offsetted by 1857:
01 [77eff450] (03/17) Accurately ripped
02 [449ff060] (03/17) Accurately ripped
03 [a6ae5deb] (03/17) Accurately ripped
04 [efbdc018] (03/17) Accurately ripped

Track Peak [ CRC32 ] [W/O NULL] [ LOG ]
– 99,9 [B762A962] [AFD009C7] CRC32
01 99,9 [8FDC2E43] [87AA6F76]
02 82,9 [FB0E7E75] [CD4F7EF6]
03 99,9 [1ECD170F] [002CDFBA]
04 82,8 [0A8F6716] [7F07D291]


CD 2: Klaus Shulze - Narren des Schicksals
EAC Rip | FLAC (image+.cue+log) - 326 MB | MP3 CBR 320 kbps (LAME 3.93) - 167 MB
Genre: Electronic, Berlin School | RAR 3% Rec. | Label: Série Poème (Série Poème 2000-2)

Tracklist:
01. Erster Satz (Con Moto)
02. Zweiter Satz (Grave)
03. Dritter Satz (Ma Con Brio)

Total time: 01:11:09

Exact Audio Copy V0.99 prebeta 5 from 4. May 2009

EAC extraction logfile from 15. February 2010, 10:42

Klaus Schulze / Narren des Schicksals (The Ultimate Edition CD 2)

Used drive : TSSTcorpDVD+-RW TS-H653B Adapter: 1 ID: 0

Read mode : Secure
Utilize accurate stream : Yes
Defeat audio cache : Yes
Make use of C2 pointers : No

Read offset correction : 6
Overread into Lead-In and Lead-Out : No
Fill up missing offset samples with silence : Yes
Delete leading and trailing silent blocks : No
Null samples used in CRC calculations : Yes
Used interface : Native Win32 interface for Win NT & 2000

Used output format : User Defined Encoder
Selected bitrate : 1024 kBit/s
Quality : High
Add ID3 tag : No
Command line compressor : C:Program FilesExact Audio CopyFLACFLAC.EXE
Additional command line options : -6 -V -T "ARTIST=%a" -T "TITLE=%t" -T "ALBUM=%g" -T "DATE=%y" -T "TRACKNUMBER=%n" -T "GENRE=%m" -T "COMMENT=%e" %s -o %d


TOC of the extracted CD

Track | Start | Length | Start sector | End sector
––––––––––––––––––––––––––––-
1 | 0:00.00 | 20:28.00 | 0 | 92099
2 | 20:28.00 | 23:04.00 | 92100 | 195899
3 | 43:32.00 | 27:37.00 | 195900 | 320174


Range status and errors

Selected range

Filename D:UEKlaus Schulze - Narren des Schicksals (The Ultimate Edition CD 2).wav

Peak level 96.2 %
Range quality 99.9 %
Test CRC F6F776E3
Copy CRC F6F776E3
Copy OK

No errors occurred


AccurateRip summary

Track 1 accurately ripped (confidence 1) [B6FA8B98]
Track 2 accurately ripped (confidence 1) [77D3209C]
Track 3 accurately ripped (confidence 1) [7E34ACD5]

All tracks accurately ripped

End of status report

[CUETools log; Date: 08.01.2016 16:51:50; Version: 2.1.4]
[CTDB TOCID: zgFj6HF.PZvrsS4lecxuARAkNzs-] found.
Track | CTDB Status
1 | (8/9) Accurately ripped
2 | (8/9) Accurately ripped
3 | (8/9) Accurately ripped
[AccurateRip ID: 000947af-001f51f9-1510ad03] found.
Track [ CRC | V2 ] Status
01 [b6fa8b98|fca9330f] (07+02/16) Accurately ripped
02 [77d3209c|43d4aca6] (07+02/16) Accurately ripped
03 [7e34acd5|90fe3be9] (07+02/16) Accurately ripped
Offsetted by 1857:
01 [9ad6caae] (03/16) Accurately ripped
02 [dc696cde] (03/16) Accurately ripped
03 [fa041e75] (03/16) Accurately ripped

Track Peak [ CRC32 ] [W/O NULL] [ LOG ]
– 96,2 [F6F776E3] [1C69CC61] CRC32
01 95,9 [428300D2] [E403C8BA]
02 79,5 [34C12BDE] [65F10B63]
03 96,2 [289E06C2] [0A95648D]


CD 3: Klaus Shulze - Was War Vor Der Zeit
EAC Rip | FLAC (image+.cue+log) - 436 MB | MP3 CBR 320 kbps (LAME 3.93) - 175 MB
Genre: Electronic, Berlin School | RAR 3% Rec. | Label: Série Poème (Série Poème 2000-3)

Tracklist:
01. Nostalgic Echo
02. Titanische Tage
03. Die Lebendige Spur

Total time: 01:14:14

Exact Audio Copy V0.99 prebeta 5 from 4. May 2009

EAC extraction logfile from 15. February 2010, 11:06

Klaus Schulze / Was War Vor Der Zeit (The Ultimate Edition CD 3)

Used drive : TSSTcorpDVD+-RW TS-H653B Adapter: 1 ID: 0

Read mode : Secure
Utilize accurate stream : Yes
Defeat audio cache : Yes
Make use of C2 pointers : No

Read offset correction : 6
Overread into Lead-In and Lead-Out : No
Fill up missing offset samples with silence : Yes
Delete leading and trailing silent blocks : No
Null samples used in CRC calculations : Yes
Used interface : Native Win32 interface for Win NT & 2000

Used output format : User Defined Encoder
Selected bitrate : 1024 kBit/s
Quality : High
Add ID3 tag : No
Command line compressor : C:Program FilesExact Audio CopyFLACFLAC.EXE
Additional command line options : -6 -V -T "ARTIST=%a" -T "TITLE=%t" -T "ALBUM=%g" -T "DATE=%y" -T "TRACKNUMBER=%n" -T "GENRE=%m" -T "COMMENT=%e" %s -o %d


TOC of the extracted CD

Track | Start | Length | Start sector | End sector
––––––––––––––––––––––––––––-
1 | 0:00.00 | 34:13.00 | 0 | 153974
2 | 34:13.00 | 27:17.00 | 153975 | 276749
3 | 61:30.00 | 12:44.00 | 276750 | 334049


Range status and errors

Selected range

Filename D:UEKlaus Schulze - Was War Vor Der Zeit (The Ultimate Edition CD 3).wav

Peak level 100.0 %
Range quality 99.9 %
Test CRC 63FAF5BE
Copy CRC 63FAF5BE
Copy OK

No errors occurred


AccurateRip summary

Track 1 accurately ripped (confidence 1) [CC4E4280]
Track 2 not present in database
Track 3 not present in database

1 track(s) accurately ripped
2 track(s) not present in the AccurateRip database

Some tracks could not be verified as accurate

End of status report

[CUETools log; Date: 08.01.2016 16:52:43; Version: 2.1.4]
[CTDB TOCID: 1xSgDhR.CsJr8YRPNh5_hBEhkt0-] found.
Track | CTDB Status
1 | (7/8) Accurately ripped
2 | (7/8) Accurately ripped
3 | (7/8) Accurately ripped
[AccurateRip ID: 000bab67-0025c1a1-22116603] found.
Track [ CRC | V2 ] Status
01 [cc4e4280|31498a16] (07+02/16) Accurately ripped
02 [225b404e|251c5177] (07+02/17) Accurately ripped
03 [80621a26|d6dc5134] (07+02/17) Accurately ripped
Offsetted by 1857:
01 [22c3db11] (03/16) Accurately ripped
02 [ad3b1599] (04/17) Accurately ripped
03 [c8129e6e] (04/17) Accurately ripped

Track Peak [ CRC32 ] [W/O NULL] [ LOG ]
– 99,9 [63FAF5BE] [37D65971] CRC32
01 92,1 [6D73630D] [05771C48]
02 97,9 [13533A8C] [048B9D04]
03 99,9 [05ABF074] [A32D05B0]


CD 4: Klaus Shulze - Sense of Beauty
EAC Rip | FLAC (image+.cue+log) - 433 MB | MP3 CBR 320 kbps (LAME 3.93) - 184 MB
Genre: Electronic, Berlin School | RAR 3% Rec. | Label: Série Poème (Série Poème 2000-4)

Tracklist:
01. Der Schönheit Spur
02. Ein Schönes Autodafé
03. Return in Happy Plight

Total time: 01:18:17

Exact Audio Copy V0.99 prebeta 5 from 4. May 2009

EAC extraction logfile from 15. February 2010, 11:28

Klaus Schulze / Sense of Beauty (The Ultimate Edition CD 4)

Used drive : TSSTcorpDVD+-RW TS-H653B Adapter: 1 ID: 0

Read mode : Secure
Utilize accurate stream : Yes
Defeat audio cache : Yes
Make use of C2 pointers : No

Read offset correction : 6
Overread into Lead-In and Lead-Out : No
Fill up missing offset samples with silence : Yes
Delete leading and trailing silent blocks : No
Null samples used in CRC calculations : Yes
Used interface : Native Win32 interface for Win NT & 2000

Used output format : User Defined Encoder
Selected bitrate : 1024 kBit/s
Quality : High
Add ID3 tag : No
Command line compressor : C:Program FilesExact Audio CopyFLACFLAC.EXE
Additional command line options : -6 -V -T "ARTIST=%a" -T "TITLE=%t" -T "ALBUM=%g" -T "DATE=%y" -T "TRACKNUMBER=%n" -T "GENRE=%m" -T "COMMENT=%e" %s -o %d


TOC of the extracted CD

Track | Start | Length | Start sector | End sector
––––––––––––––––––––––––––––-
1 | 0:00.00 | 37:41.00 | 0 | 169574
2 | 37:41.00 | 21:28.00 | 169575 | 266174
3 | 59:09.00 | 19:08.00 | 266175 | 352274


Range status and errors

Selected range

Filename D:UEKlaus Schulze - Sense of Beauty (The Ultimate Edition CD 4).wav

Peak level 100.0 %
Range quality 100.0 %
Test CRC 2A5B7FCF
Copy CRC 2A5B7FCF
Copy OK

No errors occurred


AccurateRip summary

Track 1 accurately ripped (confidence 1) [9AFD490F]
Track 2 accurately ripped (confidence 1) [795589DE]
Track 3 accurately ripped (confidence 1) [C189CED1]

All tracks accurately ripped

End of status report

[CUETools log; Date: 08.01.2016 16:53:34; Version: 2.1.4]
[CTDB TOCID: 0lWvkw2xrWH1RBH.5q3NrjY0VRk-] found.
Track | CTDB Status
1 | ( 7/10) Accurately ripped
2 | ( 9/10) Accurately ripped
3 | ( 9/10) Accurately ripped
[AccurateRip ID: 000c0639-0026dc58-1d125903] found.
Track [ CRC | V2 ] Status
01 [9afd490f|6ee8e44b] (07+02/16) Accurately ripped
02 [795589de|8b85006a] (07+02/16) Accurately ripped
03 [c189ced1|9df2b11b] (07+02/15) Accurately ripped
Offsetted by 1857:
01 [b02fdc08] (03/16) Accurately ripped
02 [8c292442] (03/16) Accurately ripped
03 [bcaf3b0e] (02/15) Accurately ripped

Track Peak [ CRC32 ] [W/O NULL] [ LOG ]
– 100,0 [2A5B7FCF] [CEA3A249] CRC32
01 99,8 [98E7D058] [1AE55041]
02 100,0 [0F9287A7] [F0E1CAB6]
03 98,8 [DAD53F4B] [2DE98AF8]


CD 5: Klaus Shulze - Picasso Geht Spazieren
EAC Rip | FLAC (image+.cue+log) - 435 MB | MP3 CBR 320 kbps (LAME 3.93) - 185 MB
Genre: Electronic, Berlin School | RAR 3% Rec. | Label: Série Poème (Série Poème 2000-5)

Tracklist:
01. Picasso Geht Spazieren: First Movement

Total time: 01:18:39

Exact Audio Copy V0.99 prebeta 5 from 4. May 2009

EAC extraction logfile from 15. February 2010, 11:52

Klaus Schulze / Picasso Geht Spazieren (The Ultimate Edition CD 5)

Used drive : TSSTcorpDVD+-RW TS-H653B Adapter: 1 ID: 0

Read mode : Secure
Utilize accurate stream : Yes
Defeat audio cache : Yes
Make use of C2 pointers : No

Read offset correction : 6
Overread into Lead-In and Lead-Out : No
Fill up missing offset samples with silence : Yes
Delete leading and trailing silent blocks : No
Null samples used in CRC calculations : Yes
Used interface : Native Win32 interface for Win NT & 2000

Used output format : User Defined Encoder
Selected bitrate : 1024 kBit/s
Quality : High
Add ID3 tag : No
Command line compressor : C:Program FilesExact Audio CopyFLACFLAC.EXE
Additional command line options : -6 -V -T "ARTIST=%a" -T "TITLE=%t" -T "ALBUM=%g" -T "DATE=%y" -T "TRACKNUMBER=%n" -T "GENRE=%m" -T "COMMENT=%e" %s -o %d


TOC of the extracted CD

Track | Start | Length | Start sector | End sector
––––––––––––––––––––––––––––-
1 | 0:00.00 | 78:39.00 | 0 | 353924


Range status and errors

Selected range

Filename D:UEKlaus Schulze - Picasso Geht Spazieren (The Ultimate Edition CD 5).wav

Peak level 98.8 %
Range quality 100.0 %
Test CRC 0BD2FA86
Copy CRC 0BD2FA86
Copy OK

No errors occurred


AccurateRip summary

Track 1 accurately ripped (confidence 1) [E2485364]

All tracks accurately ripped

End of status report

[CUETools log; Date: 08.01.2016 16:54:01; Version: 2.1.4]
[CTDB TOCID: 37Ny3ehyN2IuoBj_hhprYjXl11E-] found.
Track | CTDB Status
1 | (8/9) Accurately ripped
[AccurateRip ID: 00056685-000acd0b-02126f01] found.
Track [ CRC | V2 ] Status
01 [e2485364|e217bb71] (07+02/16) Accurately ripped
Offsetted by 1857:
01 [5456495e] (03/16) Accurately ripped

Track Peak [ CRC32 ] [W/O NULL] [ LOG ]
– 98,8 [0BD2FA86] [09C6F4E3] CRC32
01 98,8 [0BD2FA86] [09C6F4E3] CRC32


CD 6: Klaus Shulze - Picasso Geht Spazieren
EAC Rip | FLAC (image+.cue+log) - 384 MB | MP3 CBR 320 kbps (LAME 3.93) - 178 MB
Genre: Electronic, Berlin School | RAR 3% Rec. | Label: Série Poème (Série Poème 2000-6)

Tracklist:
01. Picasso Geht Spazieren: Second Movement
02. Picasso Geht Spazieren: Third Movement

Total time: 01:15:47

Exact Audio Copy V0.99 prebeta 5 from 4. May 2009

EAC extraction logfile from 15. February 2010, 12:12

Klaus Schulze / Picasso Geht Spazieren (The Ultimate Edition CD 6)

Used drive : TSSTcorpDVD+-RW TS-H653B Adapter: 1 ID: 0

Read mode : Secure
Utilize accurate stream : Yes
Defeat audio cache : Yes
Make use of C2 pointers : No

Read offset correction : 6
Overread into Lead-In and Lead-Out : No
Fill up missing offset samples with silence : Yes
Delete leading and trailing silent blocks : No
Null samples used in CRC calculations : Yes
Used interface : Native Win32 interface for Win NT & 2000

Used output format : User Defined Encoder
Selected bitrate : 1024 kBit/s
Quality : High
Add ID3 tag : No
Command line compressor : C:Program FilesExact Audio CopyFLACFLAC.EXE
Additional command line options : -6 -V -T "ARTIST=%a" -T "TITLE=%t" -T "ALBUM=%g" -T "DATE=%y" -T "TRACKNUMBER=%n" -T "GENRE=%m" -T "COMMENT=%e" %s -o %d


TOC of the extracted CD

Track | Start | Length | Start sector | End sector
––––––––––––––––––––––––––––-
1 | 0:00.00 | 15:35.13 | 0 | 70137
2 | 15:35.13 | 60:12.00 | 70138 | 341037


Range status and errors

Selected range

Filename D:UEKlaus Schulze - Picasso Geht Spazieren (The Ultimate Edition CD 6).wav

Peak level 95.0 %
Range quality 100.0 %
Test CRC 3114B3EB
Copy CRC 3114B3EB
Copy OK

No errors occurred


AccurateRip summary

Track 1 accurately ripped (confidence 1) [1A3C0831]
Track 2 accurately ripped (confidence 1) [E393CFB3]

All tracks accurately ripped

End of status report

[CUETools log; Date: 08.01.2016 16:54:35; Version: 2.1.4]
[CTDB TOCID: qxKab_CeE8VPVST9_lZReSds0rE-] found.
Track | CTDB Status
1 | (7/7) Accurately ripped
2 | (7/7) Accurately ripped
[AccurateRip ID: 00064628-0011c07f-1511c302] found.
Track [ CRC | V2 ] Status
01 [1a3c0831|25eff50d] (07+02/16) Accurately ripped
02 [e393cfb3|20d5a156] (07+02/16) Accurately ripped
Offsetted by 1857:
01 [bf06f3d0] (03/16) Accurately ripped
02 [53291e05] (03/16) Accurately ripped

Track Peak [ CRC32 ] [W/O NULL] [ LOG ]
– 95,0 [3114B3EB] [A9B65491] CRC32
01 69,5 [D39EABC2] [673B82A3]
02 95,0 [A0E1A742] [D8E55487]


CD 7: Klaus Shulze - The Music Box
EAC Rip | FLAC (image+.cue+log) - 476 MB | MP3 CBR 320 kbps (LAME 3.93) - 186 MB
Genre: Electronic, Berlin School | RAR 3% Rec. | Label: Série Poème (Série Poème 2000-7)

Tracklist:
01. The Music Box

Total time: 01:19:13

Exact Audio Copy V0.99 prebeta 5 from 4. May 2009

EAC extraction logfile from 15. February 2010, 12:34

Klaus Schulze / The Music Box (The Ultimate Edition CD 7)

Used drive : TSSTcorpDVD+-RW TS-H653B Adapter: 1 ID: 0

Read mode : Secure
Utilize accurate stream : Yes
Defeat audio cache : Yes
Make use of C2 pointers : No

Read offset correction : 6
Overread into Lead-In and Lead-Out : No
Fill up missing offset samples with silence : Yes
Delete leading and trailing silent blocks : No
Null samples used in CRC calculations : Yes
Used interface : Native Win32 interface for Win NT & 2000

Used output format : User Defined Encoder
Selected bitrate : 1024 kBit/s
Quality : High
Add ID3 tag : No
Command line compressor : C:Program FilesExact Audio CopyFLACFLAC.EXE
Additional command line options : -6 -V -T "ARTIST=%a" -T "TITLE=%t" -T "ALBUM=%g" -T "DATE=%y" -T "TRACKNUMBER=%n" -T "GENRE=%m" -T "COMMENT=%e" %s -o %d


TOC of the extracted CD

Track | Start | Length | Start sector | End sector
––––––––––––––––––––––––––––-
1 | 0:00.00 | 79:13.00 | 0 | 356474


Range status and errors

Selected range

Filename D:UEKlaus Schulze - The Music Box (The Ultimate Edition CD 7).wav

Peak level 100.0 %
Range quality 100.0 %
Test CRC 5968B53B
Copy CRC 5968B53B
Copy OK

No errors occurred


AccurateRip summary

Track 1 not present in database

None of the tracks are present in the AccurateRip database

End of status report

[CUETools log; Date: 08.01.2016 16:55:00; Version: 2.1.4]
[CTDB TOCID: WEAhfPRjLjEUGfvSFNk.nG2.Yeo-] found.
Track | CTDB Status
1 | (5/6) Accurately ripped
[AccurateRip ID: 0005707b-000ae0f7-02129101] found.
Track [ CRC | V2 ] Status
01 [012107f1|31a49077] (7+2/9) Accurately ripped

Track Peak [ CRC32 ] [W/O NULL] [ LOG ]
– 99,9 [5968B53B] [3A8DC295] CRC32
01 99,9 [5968B53B] [3A8DC295] CRC32


CD 8: Klaus Shulze - Machine de Plaisir
EAC Rip | FLAC (image+.cue+log) - 394 MB | MP3 CBR 320 kbps (LAME 3.93) - 185 MB
Genre: Electronic, Berlin School | RAR 3% Rec. | Label: Série Poème (Série Poème 2000-8)

Tracklist:
01. Machine de Plaisir

Total time: 01:18:30

Exact Audio Copy V0.99 prebeta 5 from 4. May 2009

EAC extraction logfile from 15. February 2010, 12:55

Klaus Schulze / Machine de Plaisir (The Ultimate Edition CD 8)

Used drive : TSSTcorpDVD+-RW TS-H653B Adapter: 1 ID: 0

Read mode : Secure
Utilize accurate stream : Yes
Defeat audio cache : Yes
Make use of C2 pointers : No

Read offset correction : 6
Overread into Lead-In and Lead-Out : No
Fill up missing offset samples with silence : Yes
Delete leading and trailing silent blocks : No
Null samples used in CRC calculations : Yes
Used interface : Native Win32 interface for Win NT & 2000

Used output format : User Defined Encoder
Selected bitrate : 1024 kBit/s
Quality : High
Add ID3 tag : No
Command line compressor : C:Program FilesExact Audio CopyFLACFLAC.EXE
Additional command line options : -6 -V -T "ARTIST=%a" -T "TITLE=%t" -T "ALBUM=%g" -T "DATE=%y" -T "TRACKNUMBER=%n" -T "GENRE=%m" -T "COMMENT=%e" %s -o %d


TOC of the extracted CD

Track | Start | Length | Start sector | End sector
––––––––––––––––––––––––––––-
1 | 0:00.00 | 78:30.00 | 0 | 353249


Range status and errors

Selected range

Filename D:UEKlaus Schulze - Machine de Plaisir (The Ultimate Edition CD 8).wav

Peak level 98.8 %
Range quality 99.9 %
Test CRC 741241C3
Copy CRC 741241C3
Copy OK

No errors occurred


AccurateRip summary

Track 1 accurately ripped (confidence 1) [6D11594A]

All tracks accurately ripped

End of status report

[CUETools log; Date: 08.01.2016 16:55:40; Version: 2.1.4]
[CTDB TOCID: AN.3Vcb4wBf97Gg.EgEe7JywuG4-] found.
Track | CTDB Status
1 | (5/6) Accurately ripped
[AccurateRip ID: 000563e2-000ac7c5-02126601] found.
Track [ CRC | V2 ] Status
01 [6d11594a|cbe90ca3] (7+2/9) Accurately ripped

Track Peak [ CRC32 ] [W/O NULL] [ LOG ]
– 98,8 [741241C3] [5B980E6A] CRC32
01 98,8 [741241C3] [5B980E6A] CRC32


CD 9: Klaus Shulze - Life in Ecstasy
EAC Rip | FLAC (image+.cue+log) - 441 MB | MP3 CBR 320 kbps (LAME 3.93) - 175 MB
Genre: Electronic, Berlin School | RAR 3% Rec. | Label: Série Poème (Série Poème 2000-9)

Tracklist:
01. La Présence D'Ésprit
02. Arthur Stanley Jefferson

Total time: 01:14:31

Exact Audio Copy V0.99 prebeta 5 from 4. May 2009

EAC extraction logfile from 15. February 2010, 13:15

Klaus Schulze / Life in Ecstasy (The Ultimate Edition CD 9)

Used drive : TSSTcorpDVD+-RW TS-H653B Adapter: 1 ID: 0

Read mode : Secure
Utilize accurate stream : Yes
Defeat audio cache : Yes
Make use of C2 pointers : No

Read offset correction : 6
Overread into Lead-In and Lead-Out : No
Fill up missing offset samples with silence : Yes
Delete leading and trailing silent blocks : No
Null samples used in CRC calculations : Yes
Used interface : Native Win32 interface for Win NT & 2000

Used output format : User Defined Encoder
Selected bitrate : 1024 kBit/s
Quality : High
Add ID3 tag : No
Command line compressor : C:Program FilesExact Audio CopyFLACFLAC.EXE
Additional command line options : -6 -V -T "ARTIST=%a" -T "TITLE=%t" -T "ALBUM=%g" -T "DATE=%y" -T "TRACKNUMBER=%n" -T "GENRE=%m" -T "COMMENT=%e" %s -o %d


TOC of the extracted CD

Track | Start | Length | Start sector | End sector
––––––––––––––––––––––––––––-
1 | 0:00.00 | 17:36.00 | 0 | 79199
2 | 17:36.00 | 56:55.00 | 79200 | 335324


Range status and errors

Selected range

Filename D:UEKlaus Schulze - Life in Ecstasy (The Ultimate Edition CD 9).wav

Peak level 100.0 %
Range quality 100.0 %
Test CRC 50BD032F
Copy CRC 50BD032F
Copy OK

No errors occurred


AccurateRip summary

Track 1 accurately ripped (confidence 1) [9D8A775E]
Track 2 accurately ripped (confidence 1) [3F614E06]

All tracks accurately ripped

End of status report

[CUETools log; Date: 08.01.2016 16:56:31; Version: 2.1.4]
[CTDB TOCID: vWF0TNAWscZMPavVvfX5dJWKdC4-] found.
Track | CTDB Status
1 | (8/9) Accurately ripped
2 | (8/9) Accurately ripped
[AccurateRip ID: 0006533d-0011c458-10117702] found.
Track [ CRC | V2 ] Status
01 [9d8a775e|e46bafef] (07+02/17) Accurately ripped
02 [3f614e06|dd018266] (07+02/16) Accurately ripped
Offsetted by 1857:
01 [3c6ecb47] (03/17) Accurately ripped
02 [622d7358] (02/16) Accurately ripped

Track Peak [ CRC32 ] [W/O NULL] [ LOG ]
– 99,9 [50BD032F] [83C95D93] CRC32
01 99,9 [B726EC64] [1497C7C9]
02 99,9 [9677614E] [D8381D71]


CD 10: Klaus Shulze - Mysterious Tapes
EAC Rip | FLAC (image+.cue+log) - 347 MB | MP3 CBR 320 kbps (LAME 3.93) - 172 MB
Genre: Electronic, Berlin School | RAR 3% Rec. | Label: Série Poème (Série Poème 2000-10)

Tracklist:
01. La Vie Secrète
02. Landpartie

Total time: 01:13:11

Exact Audio Copy V0.99 prebeta 5 from 4. May 2009

EAC extraction logfile from 15. February 2010, 13:35

Klaus Schulze / Mysterious Tapes (The Ultimate Edition CD 10)

Used drive : TSSTcorpDVD+-RW TS-H653B Adapter: 1 ID: 0

Read mode : Secure
Utilize accurate stream : Yes
Defeat audio cache : Yes
Make use of C2 pointers : No

Read offset correction : 6
Overread into Lead-In and Lead-Out : No
Fill up missing offset samples with silence : Yes
Delete leading and trailing silent blocks : No
Null samples used in CRC calculations : Yes
Used interface : Native Win32 interface for Win NT & 2000

Used output format : User Defined Encoder
Selected bitrate : 1024 kBit/s
Quality : High
Add ID3 tag : No
Command line compressor : C:Program FilesExact Audio CopyFLACFLAC.EXE
Additional command line options : -6 -V -T "ARTIST=%a" -T "TITLE=%t" -T "ALBUM=%g" -T "DATE=%y" -T "TRACKNUMBER=%n" -T "GENRE=%m" -T "COMMENT=%e" %s -o %d


TOC of the extracted CD

Track | Start | Length | Start sector | End sector
––––––––––––––––––––––––––––-
1 | 0:00.00 | 62:24.00 | 0 | 280799
2 | 62:24.00 | 10:47.00 | 280800 | 329324


Range status and errors

Selected range

Filename D:UEKlaus Schulze - Mysterious Tapes (The Ultimate Edition CD 10).wav

Peak level 92.4 %
Range quality 100.0 %
Test CRC EACCED9A
Copy CRC EACCED9A
Copy OK

No errors occurred


AccurateRip summary

Track 1 accurately ripped (confidence 1) [C156B656]
Track 2 accurately ripped (confidence 1) [241AB70B]

All tracks accurately ripped

End of status report

[CUETools log; Date: 08.01.2016 16:57:44; Version: 2.1.4]
[CTDB TOCID: E1Y8g7ffHwH.1LgRfEBgy4vytmo-] found.
Track | CTDB Status
1 | ( 8/10) Accurately ripped
2 | ( 8/10) Accurately ripped
[AccurateRip ID: 00094f4d-0017a508-16112702] found.
Track [ CRC | V2 ] Status
01 [c156b656|06ffb457] (07+02/17) Accurately ripped
02 [241ab70b|01dcac34] (07+02/17) Accurately ripped
Offsetted by 1857:
01 [c7da6613] (03/17) Accurately ripped
02 [2852937f] (03/17) Accurately ripped

Track Peak [ CRC32 ] [W/O NULL] [ LOG ]
– 92,4 [EACCED9A] [A8E23C62] CRC32
01 92,4 [5855A53D] [8D6BBD6B]
02 91,8 [423093F9] [700D9837]

Thanks to jmj713

CD 1: Klaus Shulze - Film Musik

LOSSLESS:
http://www.nitroflare.com/view/4283508FBB8E068/C01KS-FM.rar
_______________

MP3 320 kbps:
http://www.nitroflare.com/view/9D1792D5D49E67A/C01KS-FM_M.rar
______________________________________

CD 2: Klaus Shulze - Narren des Schicksals

LOSSLESS:
http://www.nitroflare.com/view/E544602397279FD/C02KS-NdS.rar
_______________

MP3 320 kbps:
http://www.nitroflare.com/view/B410C655BC7DA76/C02KS-NdS_M.rar
______________________________________

CD 3: Klaus Shulze - Was War Vor Der Zeit

LOSSLESS:
http://www.nitroflare.com/view/7DBF1E302AD178E/C03KS-WWVDZ.rar
_______________

MP3 320 kbps:
http://www.nitroflare.com/view/D828F15AF34AB4A/C03KS-WWVDZ_M.rar
______________________________________

CD 4: Klaus Shulze - Sense of Beauty

LOSSLESS:
http://www.nitroflare.com/view/DA2C035E9EFCB52/C04KS-SoB.rar
_______________

MP3 320 kbps:
http://www.nitroflare.com/view/24EDCB7D587447C/C04KS-SoB_M.rar
______________________________________

CD 5: Klaus Shulze - Picasso Geht Spazieren

LOSSLESS:
http://www.nitroflare.com/view/650D4F1F5F5425F/C05KS-PGS.rar
_______________

MP3 320 kbps:
http://www.nitroflare.com/view/88AD3408C4E5040/C05KS-PGS_M.rar
______________________________________

CD 6: Klaus Shulze - Picasso Geht Spazieren

LOSSLESS:
http://www.nitroflare.com/view/B585CA41F315762/C06KS-PGS.rar
_______________

MP3 320 kbps:
http://www.nitroflare.com/view/E6C37A09E37FA0B/C06KS-PGS_M.rar
______________________________________

CD 7: Klaus Shulze - The Music Box

LOSSLESS:
http://www.nitroflare.com/view/46BA3A7F878CB26/C07KS-TMB.rar
_______________

MP3 320 kbps:
http://www.nitroflare.com/view/F88F47C89F92A90/C07KS-TMB_M.rar
______________________________________

CD 8: Klaus Shulze - Machine de Plaisir

LOSSLESS:
http://www.nitroflare.com/view/24C8CE1C7419D9B/C08KS-MdP.rar
_______________

MP3 320 kbps:
http://www.nitroflare.com/view/293E93C2190B50E/C08KS-MdP_M.rar
______________________________________

CD 9: Klaus Shulze - Life in Ecstasy

LOSSLESS:
http://www.nitroflare.com/view/E1F4A0E69A7BB7B/C09KS-LiE.rar
_______________

MP3 320 kbps:
http://www.nitroflare.com/view/E96ED680A8EF230/C09KS-LiE_M.rar
______________________________________

CD 10: Klaus Shulze - Mysterious Tapes

LOSSLESS:
http://www.nitroflare.com/view/BDAEAA59E14F0A7/C10KS-MT.rar
_______________

MP3 320 kbps:
http://www.nitroflare.com/view/8FD61707051DA37/C10KS-MT_M.rar
______________________________________

Covers:
http://www.nitroflare.com/view/61CD899EB614CC3/KS-TUE_00_B1_sc.rar

CD 1: Klaus Shulze - Film Musik

LOSSLESS:

_______________

MP3 320 kbps:

______________________________________

CD 2: Klaus Shulze - Narren des Schicksals

LOSSLESS:

_______________

MP3 320 kbps:

______________________________________

CD 3: Klaus Shulze - Was War Vor Der Zeit

LOSSLESS:

_______________

MP3 320 kbps:

______________________________________

CD 4: Klaus Shulze - Sense of Beauty

LOSSLESS:

_______________

MP3 320 kbps:

______________________________________

CD 5: Klaus Shulze - Picasso Geht Spazieren

LOSSLESS:

_______________

MP3 320 kbps:

______________________________________

CD 6: Klaus Shulze - Picasso Geht Spazieren

LOSSLESS:

_______________

MP3 320 kbps:

______________________________________

CD 7: Klaus Shulze - The Music Box

LOSSLESS:

_______________

MP3 320 kbps:

______________________________________

CD 8: Klaus Shulze - Machine de Plaisir

LOSSLESS:

_______________

MP3 320 kbps:

______________________________________

CD 9: Klaus Shulze - Life in Ecstasy

LOSSLESS:

_______________

MP3 320 kbps:

______________________________________

CD 10: Klaus Shulze - Mysterious Tapes

LOSSLESS:

_______________

MP3 320 kbps:

______________________________________

Covers: