James Last - Christmas Dancing (1966) [1998, Reissue]


James Last - Christmas Dancing (1966/1998)
EAC Rip | FLAC (Img) + Cue + Log ~ 322 Mb | MP3 CBR320 ~ 137 Mb
Scans Included (JPG, 400 dpi) | RAR 5% Recovery
Easy Listening, Christmas Classic | Polydor #559 013-2

Digitally remastered edition of this holiday release from the German composer and band leader. On this album, Last leads the band through 10 different holiday-themed medleys plus two additional tracks.
| | |

***************


Track List:

01. Kling Glockchen Klingelingeling/Lasst Uns Froh Und Munter sein [03:16]
02. Schneeflockchen,Weissrockchen/Auf Dem Berge,Da Wehet Der Wind [04:05]
03. Morgen,Kinder,Wird's Was Geben/Alle Jahre Wieder/Frohliche weihnacht uberall [03:24]
04. Am Weihnachtsbaum Die Lichter Brennen/Es Ist Ein Ros' Entsprungen [03:42]
05. Ihr Kinderlein Kommet/Der Christbaum Ist Der Schonste Baum [03:18]
06. White Christmas/Midnight In December/Jingle Bells [05:32]
07. Kommet,Ihr Hirten/O Tannenbaum/Christnacht [03:12]
08. Morgen Kommt Der Weihnachtsmann/O Wunder uber Wunder/Wenn der Schnee vom Himm… [02:59]
09. Susser Die Glocken Nie Klingen/In Dulci Jubilo/Joseph,Lieber Joseph mein [03:37]
10. Schlittenfahrt Im Winterwald/Stille Nacht,Heilige Nacht [04:38]
11. Petersburger Schlittenfahrt [02:50]
12. Kirchenglocken Zur Weihnachtszeit [07:38]

Exact Audio Copy V1.0 beta 3 from 29. August 2011

EAC extraction logfile from 7. December 2015, 14:13

Christmas Dancing / James Last

Used drive : PIONEER BD-RW BDR-TD03 Adapter: 0 ID: 1

Read mode : Secure
Utilize accurate stream : Yes
Defeat audio cache : Yes
Make use of C2 pointers : No

Read offset correction : 667
Overread into Lead-In and Lead-Out : No
Fill up missing offset samples with silence : Yes
Delete leading and trailing silent blocks : No
Null samples used in CRC calculations : Yes
Used interface : Native Win32 interface for Win NT & 2000

Used output format : User Defined Encoder
Selected bitrate : 768 kBit/s
Quality : High
Add ID3 tag : No
Command line compressor : C:Program Files (x86)Exact Audio CopyFLACFLAC.EXE
Additional command line options : -6 -V -T "ARTIST=%artist%" -T "TITLE=%title%" -T "ALBUM=%albumtitle%" -T "DATE=%year%" -T "TRACKNUMBER=%tracknr%" -T "GENRE=%genre%" -T "COMMENT=%comment%" -T "BAND=%albuminterpret%" -T "ALBUMARTIST=%albuminterpret%" -T "COMPOSER=%composer%" %haslyrics%–tag-from-file=LYRICS="%lyricsfile%"%haslyrics% -T "DISCNUMBER=%cdnumber%" -T "TOTALDISCS=%totalcds%" -T "TOTALTRACKS=%numtracks%" %hascover%–picture="%coverfile%"%hascover% %source% -o %dest%


TOC of the extracted CD

Track | Start | Length | Start sector | End sector
––––––––––––––––––––––––––––-
1 | 0:00.00 | 3:15.69 | 0 | 14693
2 | 3:15.69 | 4:04.18 | 14694 | 33011
3 | 7:20.12 | 3:23.54 | 33012 | 48290
4 | 10:43.66 | 3:41.40 | 48291 | 64905
5 | 14:25.31 | 3:17.10 | 64906 | 79690
6 | 17:42.41 | 5:31.50 | 79691 | 104565
7 | 23:14.16 | 3:11.66 | 104566 | 118956
8 | 26:26.07 | 2:58.01 | 118957 | 132307
9 | 29:24.08 | 3:36.24 | 132308 | 148531
10 | 33:00.32 | 4:37.18 | 148532 | 169324
11 | 37:37.50 | 2:49.68 | 169325 | 182067
12 | 40:27.43 | 7:37.04 | 182068 | 216346


Range status and errors

Selected range

Filename C:UsersDerisDesktop…LastChrisChristmas Dancing - James Last.wav

Peak level 99.9 %
Extraction speed 4.6 X
Range quality 100.0 %
Test CRC 1259BAB0
Copy CRC 1259BAB0
Copy OK

No errors occurred


AccurateRip summary

Track 1 accurately ripped (confidence 6) [004C1008] (AR v2)
Track 2 accurately ripped (confidence 6) [7F4963F4] (AR v2)
Track 3 accurately ripped (confidence 5) [12CF6383] (AR v2)
Track 4 accurately ripped (confidence 6) [BAE7CF24] (AR v2)
Track 5 accurately ripped (confidence 6) [9B1B1D60] (AR v2)
Track 6 accurately ripped (confidence 6) [6E179E94] (AR v2)
Track 7 accurately ripped (confidence 6) [D435F076] (AR v2)
Track 8 accurately ripped (confidence 6) [82076FCE] (AR v2)
Track 9 accurately ripped (confidence 6) [3BC20649] (AR v2)
Track 10 accurately ripped (confidence 6) [DB265DB2] (AR v2)
Track 11 accurately ripped (confidence 6) [690C7F82] (AR v2)
Track 12 accurately ripped (confidence 6) [AC758047] (AR v2)

All tracks accurately ripped

End of status report

–– CUETools DB Plugin V2.1.3

[CTDB TOCID: svAZ9FDfPuAk6cmzO9pzl_4K0N4-] found, Submit result: svAZ9FDfPuAk6cmzO9pzl_4K0N4- has been confirmed
[80d626d2] (11/11) Accurately ripped


==== Log checksum FBDF0CFB90A44835F86C10E90F81A40B0D63CFFC978811671518DA51ABEAEA55 ====

foobar2000 1.2.6 / Dynamic Range Meter 1.1.1
log date: 2015-12-11 11:55:46

––––––––––––––––––––––––––––––––––––––––
Analyzed: Christmas Dancing / James Last
––––––––––––––––––––––––––––––––––––––––

DR Peak RMS Duration Track
––––––––––––––––––––––––––––––––––––––––
DR8 0.00 dB -9.70 dB 3:16 01-Kling Glockchen Klingelingeling/Lasst Uns Froh Und Munter sein
DR9 0.00 dB -11.07 dB 4:04 02-Schneeflockchen,Weissrockchen/Auf Dem Berge,Da Wehet Der Wind
DR8 0.00 dB -11.27 dB 3:24 03-Morgen,Kinder,Wird's Was Geben/Alle Jahre Wieder/Frohliche weihnacht uberall
DR7 0.00 dB -9.60 dB 3:42 04-Am Weihnachtsbaum Die Lichter Brennen/Es Ist Ein Ros' Entsprungen
DR7 0.00 dB -9.96 dB 3:17 05-Ihr Kinderlein Kommet/Der Christbaum Ist Der Schonste Baum
DR6 0.00 dB -8.77 dB 5:32 06-White Christmas/Midnight In December/Jingle Bells
DR6 0.00 dB -9.59 dB 3:12 07-Kommet,Ihr Hirten/O Tannenbaum/Christnacht
DR7 0.00 dB -9.10 dB 2:58 08-Morgen Kommt Der Weihnachtsmann/O Wunder uber Wunder/Wenn der Schnee vom Himm…
DR8 0.00 dB -11.22 dB 3:36 09-Susser Die Glocken Nie Klingen/In Dulci Jubilo/Joseph,Lieber Joseph mein
DR7 0.00 dB -10.57 dB 4:37 10-Schlittenfahrt Im Winterwald/Stille Nacht,Heilige Nacht
DR7 0.00 dB -9.25 dB 2:50 11-Petersburger Schlittenfahrt
DR7 0.00 dB -10.91 dB 7:37 12-Kirchenglocken Zur Weihnachtszeit
––––––––––––––––––––––––––––––––––––––––

Number of tracks: 12
Official DR value: DR7

Samplerate: 44100 Hz
Channels: 2
Bits per sample: 16
Bitrate: 831 kbps
Codec: FLAC
================================================================================

[CUETools log; Date: 11.12.2015 11:57:24; Version: 2.1.5]
[CTDB TOCID: svAZ9FDfPuAk6cmzO9pzl_4K0N4-] found.
Track | CTDB Status
1 | (12/12) Accurately ripped
2 | (12/12) Accurately ripped
3 | (12/12) Accurately ripped
4 | (12/12) Accurately ripped
5 | (12/12) Accurately ripped
6 | (12/12) Accurately ripped
7 | (12/12) Accurately ripped
8 | (12/12) Accurately ripped
9 | (12/12) Accurately ripped
10 | (12/12) Accurately ripped
11 | (12/12) Accurately ripped
12 | (12/12) Accurately ripped
[AccurateRip ID: 001407b9-00bc5a45-c00b440c] found.
Track [ CRC | V2 ] Status
01 [dd9dc7a1|004c1008] (04+06/13) Accurately ripped
02 [3b07acf9|7f4963f4] (04+06/13) Accurately ripped
03 [d8164a03|12cf6383] (04+05/12) Accurately ripped
04 [ad1b3af9|bae7cf24] (04+06/13) Accurately ripped
05 [509099ae|9b1b1d60] (04+06/13) Accurately ripped
06 [43b0a38b|6e179e94] (04+06/13) Accurately ripped
07 [0655dda0|d435f076] (04+06/13) Accurately ripped
08 [44e483b4|82076fce] (04+06/13) Accurately ripped
09 [25a422ba|3bc20649] (04+06/13) Accurately ripped
10 [52270a30|db265db2] (04+06/13) Accurately ripped
11 [67419efd|690c7f82] (04+06/13) Accurately ripped
12 [96c87c23|ac758047] (04+06/13) Accurately ripped
Offsetted by 667:
01 [e75a7027] (03/13) Accurately ripped
02 [a85e605e] (03/13) Accurately ripped
03 [f62c88f5] (03/12) Accurately ripped
04 [f19105a9] (03/13) Accurately ripped
05 [e5bf79eb] (03/13) Accurately ripped
06 [5a10399e] (03/13) Accurately ripped
07 [fbdab39d] (03/13) Accurately ripped
08 [b6560e06] (03/13) Accurately ripped
09 [c0cfb65c] (03/13) Accurately ripped
10 [09e7491a] (03/13) Accurately ripped
11 [19a59f6c] (03/13) Accurately ripped
12 [bff5affd] (03/13) Accurately ripped

Track Peak [ CRC32 ] [W/O NULL] [ LOG ]
– 99,9 [1259BAB0] [BA225A3E] CRC32
01 99,9 [8D8361BC] [6759B8A3]
02 99,9 [B9415A28] [9F972A14]
03 99,9 [8ABFD8F5] [163B2DBA]
04 99,9 [50FB2AD5] [AC22C667]
05 99,9 [8F29A436] [B0AA2A76]
06 99,9 [38221EBB] [F9D7B203]
07 99,9 [A95824D3] [4D9C17E5]
08 99,9 [544AD6C3] [C4D2E434]
09 99,9 [B32916EC] [1042FAF5]
10 99,9 [F90B7C32] [8135CBD7]
11 99,9 [A328893B] [3DD6EDC7]
12 99,9 [4BBD6AC0] [E36FD7DF]


See also:


All thanks go to Boris1



No mirrors, please!

Download: