Ralph Towner - Batik (1978) {ECM 1121} [Re-Up]


Ralph Towner - Batik (1978) {ECM 1121}
EAC 1.0b1 | FLAC tracks level 8 | Cue+Log+M3U | Full Scans 300dpi | 234MB + 5% Recovery
Genre: Jazz, Fusion

Guitarist Ralph Towner (who also plays a bit of piano) teams up with the highly sympathetic bassist Eddie Gomez and drummer Jack DeJohnette for five of his originals on this 1978 date. The music unfolds slowly but logically, and Towner's quiet sound displays a lot of inner heat. Highlights include "Waterwheel" and the 16-minute "Batik." Well worth listening to closely, at a high volume.
Track List
01. Waterwheel 9:21
02. Shades Of Sutton Hoo 4:39
03. Trellis 8:24
04. Batik 16:19
05. Green Room 6:17

musicians
Ralph Towner - 12-string and classical guitar, piano
Eddie Gomez - double bass
Jack DeJohnette - drums

Produced by Manfred Eicher


Exact Audio Copy V1.0 beta 1 from 15. November 2010

EAC extraction logfile from 11. January 2011, 14:18

Ralph Towner / Batik

Used drive : HL-DT-STDVDRAM GH20NS10 Adapter: 2 ID: 0

Read mode : Secure
Utilize accurate stream : Yes
Defeat audio cache : Yes
Make use of C2 pointers : No

Read offset correction : 667
Overread into Lead-In and Lead-Out : No
Fill up missing offset samples with silence : Yes
Delete leading and trailing silent blocks : No
Null samples used in CRC calculations : Yes
Used interface : Native Win32 interface for Win NT & 2000
Gap handling : Appended to previous track

Used output format : User Defined Encoder
Selected bitrate : 1024 kBit/s
Quality : High
Add ID3 tag : No
Command line compressor : C:Program FilesExact Audio CopyFlacflac.exe
Additional command line options : -8 -V -T "ARTIST=%a" -T "TITLE=%t" -T "ALBUM=%g" -T "DATE=%y" -T "TRACKNUMBER=%n" -T "TOTALTRACKS=%x" -T "GENRE=%m" -T "ALBUMARTIST=%v" -T "ALBUM ARTIST=%v" -T "COMMENT=EAC Secure Mode, Test & Copy, AccurateRip, FLAC -8" %s


TOC of the extracted CD

Track | Start | Length | Start sector | End sector
––––––––––––––––––––––––––––-
1 | 0:00.33 | 9:21.25 | 33 | 42132
2 | 9:21.58 | 4:38.50 | 42133 | 63032
3 | 14:00.33 | 8:24.00 | 63033 | 100832
4 | 22:24.33 | 16:19.00 | 100833 | 174257
5 | 38:43.33 | 6:17.00 | 174258 | 202532


Track 1

Filename G:Ralph Towner - Batik (1978) {ECM 1121}1 - Waterwheel.wav

Pre-gap length 0:00:02.33

Peak level 87.8 %
Extraction speed 5.1 X
Track quality 100.0 %
Test CRC 406F1D9E
Copy CRC 406F1D9E
Accurately ripped (confidence 21) [8DF36FC7]
Copy OK

Track 2

Filename G:Ralph Towner - Batik (1978) {ECM 1121}2 - Shades Of Sutton Hoo.wav

Pre-gap length 0:00:03.25

Peak level 70.1 %
Extraction speed 5.2 X
Track quality 100.0 %
Test CRC A4D866B8
Copy CRC A4D866B8
Accurately ripped (confidence 21) [0A0C3435]
Copy OK

Track 3

Filename G:Ralph Towner - Batik (1978) {ECM 1121}3 - Trellis.wav

Pre-gap length 0:00:04.25

Peak level 87.8 %
Extraction speed 6.5 X
Track quality 100.0 %
Test CRC E72F2C0F
Copy CRC E72F2C0F
Accurately ripped (confidence 21) [EFF145CF]
Copy OK

Track 4

Filename G:Ralph Towner - Batik (1978) {ECM 1121}4 - Batik.wav

Pre-gap length 0:00:04.38

Peak level 87.8 %
Extraction speed 7.8 X
Track quality 100.0 %
Test CRC 711C4B87
Copy CRC 711C4B87
Accurately ripped (confidence 21) [42990558]
Copy OK

Track 5

Filename G:Ralph Towner - Batik (1978) {ECM 1121}5 - Green Room.wav

Pre-gap length 0:00:03.25

Peak level 65.3 %
Extraction speed 8.0 X
Track quality 100.0 %
Test CRC D6A21112
Copy CRC D6A21112
Accurately ripped (confidence 21) [6D8A7D4C]
Copy OK


All tracks accurately ripped

No errors occurred

End of status report

==== Log checksum EC94DE927AEBD1B65FAC2E30DE5C97F910C53D98042A6C1F5F6B5EB85EDF51D8 ====


––––––––––––––––––––––––––––––––––––––––
Analyzed: Ralph Towner / Batik
––––––––––––––––––––––––––––––––––––––––

DR Peak RMS Duration Track
––––––––––––––––––––––––––––––––––––––––
DR16 -1.12 dB -21.10 dB 9:21 01-Waterwheel
DR16 -3.09 dB -25.19 dB 4:39 02-Shades Of Sutton Hoo
DR16 -1.12 dB -21.83 dB 8:24 03-Trellis
DR17 -1.12 dB -22.78 dB 16:19 04-Batik
DR15 -3.70 dB -22.94 dB 6:17 05-Green Room
––––––––––––––––––––––––––––––––––––––––

Number of tracks: 5
Official DR value: DR16

Samplerate: 44100 Hz
Channels: 2
Bits per sample: 16
Bitrate: 640 kbps
Codec: FLAC
================================================================================



Rip by tiburon