The Beatles - Back-Track Part Two (1989) **[RE-UP]**


The Beatles - Back-Track Part Two (1989)
EAC Rip | FLAC with CUE and log | scans | 445 mb
MP3 CBR 320kbps | RAR | 175mb
Genre: pop, rock, rock'n'roll

When there were bootleg albums released on compact disc, The Beatles were one of the first artists to have one of their own. Back-Track Part Two is a 74 minute CD with outtakes recorded between 1963 to 1968, which was available in pristine quality for the very first time. 26 years ago, discs like this and the Ultra Rare Trax became a huge rage.


1. There's A Place (Take 10)
2. Misery (Take 2)
3. Misery (Take 3)
4. Misery (Take 4)
5. Misery (Take 5)
6. Misery (Take 6)
7. She's A Woman (Take 7)
8. She's A Woman (Take 8)
9. I Feel Fine (Take 6)
10. I Feel Fine (Take 7)
11. Yes It Is (Take 1)
12. Yes It Is (Take 2)
13. Ticket To Ride (Take 2 - Dry Mix)
14. Help! (Take 1)
15. Help! (Take 2)
16. Help! (Take 3)
17. Help! (Take 4)
18. Help! (Take 5)
19. Day Tripper (Take 1)
20. Day Tripper (Take 2)
21. Day Tripper (Take 3)
22. We Can Work It Out (Take 1)
23. We Can Work It Out (Take 2)
24. Norwegian Wood (This Bird Has Flown) (Take 1)
25. Paperback Writer (Take 1)
26. Paperback Writer (Take 2)
27. Hello Hello (Take 1)
28. Magical Mystery Tour (Take 8)
29. Jessie's Dream (Film Music)
30. Blue Jay Way (Take 3)
31. Hey Jude (Take 9)
32. I Hate To See (The Evening Sun Go Down)


Exact Audio Copy V1.1 from 23. June 2015

EAC extraction logfile from 17. January 2016, 19:38

The Beatles / Back-Track Part Two

Used drive : TEAC DVD-ROM DV-28SW Adapter: 1 ID: 0

Read mode : Secure
Utilize accurate stream : Yes
Defeat audio cache : Yes
Make use of C2 pointers : No

Read offset correction : 6
Overread into Lead-In and Lead-Out : No
Fill up missing offset samples with silence : Yes
Delete leading and trailing silent blocks : No
Null samples used in CRC calculations : Yes
Used interface : Native Win32 interface for Win NT & 2000
Gap handling : Left out

Used output format : Internal WAV Routines
Sample format : 44.100 Hz; 16 Bit; Stereo


TOC of the extracted CD

Track | Start | Length | Start sector | End sector
––––––––––––––––––––––––––––-
1 | 0:00.33 | 2:04.20 | 33 | 9352
2 | 2:04.53 | 0:55.60 | 9353 | 13537
3 | 3:00.38 | 0:31.47 | 13538 | 15909
4 | 3:32.10 | 0:38.35 | 15910 | 18794
5 | 4:10.45 | 0:38.20 | 18795 | 21664
6 | 4:48.65 | 2:08.55 | 21665 | 31319
7 | 6:57.45 | 0:51.28 | 31320 | 35172
8 | 7:48.73 | 5:37.12 | 35173 | 60459
9 | 13:26.10 | 2:48.25 | 60460 | 73084
10 | 16:14.35 | 2:43.50 | 73085 | 85359
11 | 18:58.10 | 2:59.28 | 85360 | 98812
12 | 21:57.38 | 1:25.57 | 98813 | 105244
13 | 23:23.20 | 3:18.38 | 105245 | 120132
14 | 26:41.58 | 0:25.50 | 120133 | 122057
15 | 27:07.33 | 0:40.02 | 122058 | 125059
16 | 27:47.35 | 1:04.00 | 125060 | 129859
17 | 28:51.35 | 1:19.00 | 129860 | 135784
18 | 30:10.35 | 2:52.08 | 135785 | 148692
19 | 33:02.43 | 2:06.67 | 148693 | 158209
20 | 35:09.35 | 0:54.25 | 158210 | 162284
21 | 36:03.60 | 3:32.50 | 162285 | 178234
22 | 39:36.35 | 1:57.73 | 178235 | 187082
23 | 41:34.33 | 2:34.50 | 187083 | 198682
24 | 44:09.08 | 2:01.35 | 198683 | 207792
25 | 46:10.43 | 0:38.67 | 207793 | 210709
26 | 46:49.35 | 2:57.53 | 210710 | 224037
27 | 49:47.13 | 5:09.52 | 224038 | 247264
28 | 54:56.65 | 4:25.33 | 247265 | 267172
29 | 59:22.23 | 4:38.30 | 267173 | 288052
30 | 64:00.53 | 3:44.15 | 288053 | 304867
31 | 67:44.68 | 5:48.70 | 304868 | 331037
32 | 73:33.63 | 0:59.45 | 331038 | 335507


Track 1

Filename C:My DocumentsMy FLACThe Beatles - Back-Track Part Two (1989) [FLAC]1 - There's A Place (Take 10).wav

Pre-gap length 0:00:02.33

Peak level 99.4 %
Extraction speed 2.4 X
Track quality 100.0 %
Test CRC 7CF6F163
Copy CRC 7CF6F163
Accurately ripped (confidence 7) [A1D41D4D] (AR v2)
Copy OK

Track 2

Filename C:My DocumentsMy FLACThe Beatles - Back-Track Part Two (1989) [FLAC]2 - Misery (Take 2).wav

Peak level 93.0 %
Extraction speed 1.9 X
Track quality 100.0 %
Test CRC 028D52E4
Copy CRC 028D52E4
Accurately ripped (confidence 7) [1B0C472C] (AR v2)
Copy OK

Track 3

Filename C:My DocumentsMy FLACThe Beatles - Back-Track Part Two (1989) [FLAC]3 - Misery (Take 3).wav

Peak level 87.3 %
Extraction speed 1.5 X
Track quality 100.0 %
Test CRC 18F4F168
Copy CRC 18F4F168
Accurately ripped (confidence 7) [4B42C189] (AR v2)
Copy OK

Track 4

Filename C:My DocumentsMy FLACThe Beatles - Back-Track Part Two (1989) [FLAC]4 - Misery (Take 4).wav

Peak level 99.1 %
Extraction speed 1.7 X
Track quality 100.0 %
Test CRC E4265BEC
Copy CRC E4265BEC
Accurately ripped (confidence 7) [89BC1F99] (AR v2)
Copy OK

Track 5

Filename C:My DocumentsMy FLACThe Beatles - Back-Track Part Two (1989) [FLAC]5 - Misery (Take 5).wav

Peak level 99.4 %
Extraction speed 1.7 X
Track quality 100.0 %
Test CRC 6FC9FB24
Copy CRC 6FC9FB24
Accurately ripped (confidence 7) [9C7E95E7] (AR v2)
Copy OK

Track 6

Filename C:My DocumentsMy FLACThe Beatles - Back-Track Part Two (1989) [FLAC]6 - Misery (Take 6).wav

Peak level 99.4 %
Extraction speed 2.7 X
Track quality 100.0 %
Test CRC 91EF8581
Copy CRC 91EF8581
Accurately ripped (confidence 7) [AB41BD05] (AR v2)
Copy OK

Track 7

Filename C:My DocumentsMy FLACThe Beatles - Back-Track Part Two (1989) [FLAC]7 - She's A Woman (Take 7).wav

Peak level 99.4 %
Extraction speed 2.1 X
Track quality 100.0 %
Test CRC 6059F083
Copy CRC 6059F083
Accurately ripped (confidence 7) [246A0EB4] (AR v2)
Copy OK

Track 8

Filename C:My DocumentsMy FLACThe Beatles - Back-Track Part Two (1989) [FLAC]8 - She's A Woman (Take 8).wav

Peak level 99.5 %
Extraction speed 3.5 X
Track quality 100.0 %
Test CRC 556622E7
Copy CRC 556622E7
Accurately ripped (confidence 7) [C7401F15] (AR v2)
Copy OK

Track 9

Filename C:My DocumentsMy FLACThe Beatles - Back-Track Part Two (1989) [FLAC]9 - I Feel Fine (Take 6).wav

Peak level 93.7 %
Extraction speed 2.7 X
Track quality 99.9 %
Test CRC BA14F9C3
Copy CRC BA14F9C3
Accurately ripped (confidence 7) [FEC70C9C] (AR v2)
Copy OK

Track 10

Filename C:My DocumentsMy FLACThe Beatles - Back-Track Part Two (1989) [FLAC]10 - I Feel Fine (Take 7).wav

Peak level 99.5 %
Extraction speed 2.8 X
Track quality 99.9 %
Test CRC E2EA13D4
Copy CRC E2EA13D4
Accurately ripped (confidence 7) [63D4CAE4] (AR v2)
Copy OK

Track 11

Filename C:My DocumentsMy FLACThe Beatles - Back-Track Part Two (1989) [FLAC]11 - Yes It Is (Take 1).wav

Peak level 99.5 %
Extraction speed 3.7 X
Track quality 100.0 %
Test CRC C137179A
Copy CRC C137179A
Accurately ripped (confidence 7) [F66AA678] (AR v2)
Copy OK

Track 12

Filename C:My DocumentsMy FLACThe Beatles - Back-Track Part Two (1989) [FLAC]12 - Yes It Is (Take 2).wav

Peak level 99.5 %
Extraction speed 3.2 X
Track quality 100.0 %
Test CRC D1A0A755
Copy CRC D1A0A755
Accurately ripped (confidence 7) [3F8633BE] (AR v2)
Copy OK

Track 13

Filename C:My DocumentsMy FLACThe Beatles - Back-Track Part Two (1989) [FLAC]13 - Ticket To Ride (Take 2).wav

Peak level 99.5 %
Extraction speed 3.3 X
Track quality 99.9 %
Test CRC 1DA65E15
Copy CRC 1DA65E15
Accurately ripped (confidence 7) [8045BCD0] (AR v2)
Copy OK

Track 14

Filename C:My DocumentsMy FLACThe Beatles - Back-Track Part Two (1989) [FLAC]14 - Help! (Take 1).wav

Peak level 96.7 %
Extraction speed 1.9 X
Track quality 100.0 %
Test CRC 6605CA00
Copy CRC 6605CA00
Accurately ripped (confidence 7) [F49D4960] (AR v2)
Copy OK

Track 15

Filename C:My DocumentsMy FLACThe Beatles - Back-Track Part Two (1989) [FLAC]15 - Help! (Take 2).wav

Peak level 99.8 %
Extraction speed 2.5 X
Track quality 100.0 %
Test CRC 303B5C1D
Copy CRC 303B5C1D
Accurately ripped (confidence 7) [B97DE1C0] (AR v2)
Copy OK

Track 16

Filename C:My DocumentsMy FLACThe Beatles - Back-Track Part Two (1989) [FLAC]16 - Help! (Take 3).wav

Peak level 99.1 %
Extraction speed 3.0 X
Track quality 100.0 %
Test CRC 36B595EC
Copy CRC 36B595EC
Accurately ripped (confidence 7) [2F257265] (AR v2)
Copy OK

Track 17

Filename C:My DocumentsMy FLACThe Beatles - Back-Track Part Two (1989) [FLAC]17 - Help! (Take 4).wav

Peak level 97.2 %
Extraction speed 2.3 X
Track quality 99.8 %
Test CRC 610807B5
Copy CRC 610807B5
Accurately ripped (confidence 7) [9070135A] (AR v2)
Copy OK

Track 18

Filename C:My DocumentsMy FLACThe Beatles - Back-Track Part Two (1989) [FLAC]18 - Help! (Take 5).wav

Peak level 99.2 %
Extraction speed 4.2 X
Track quality 100.0 %
Test CRC 0A1E5EAD
Copy CRC 0A1E5EAD
Accurately ripped (confidence 7) [CC5AC854] (AR v2)
Copy OK

Track 19

Filename C:My DocumentsMy FLACThe Beatles - Back-Track Part Two (1989) [FLAC]19 - Day Tripper (Take 1).wav

Peak level 96.5 %
Extraction speed 4.0 X
Track quality 100.0 %
Test CRC 347A2447
Copy CRC 347A2447
Accurately ripped (confidence 7) [45162B0E] (AR v2)
Copy OK

Track 20

Filename C:My DocumentsMy FLACThe Beatles - Back-Track Part Two (1989) [FLAC]20 - Day Tripper (Take 2).wav

Peak level 99.9 %
Extraction speed 3.0 X
Track quality 100.0 %
Test CRC 6781CE89
Copy CRC 6781CE89
Accurately ripped (confidence 7) [F2B1D955] (AR v2)
Copy OK

Track 21

Filename C:My DocumentsMy FLACThe Beatles - Back-Track Part Two (1989) [FLAC]21 - Day Tripper (Take 3).wav

Peak level 99.5 %
Extraction speed 4.5 X
Track quality 100.0 %
Test CRC 0EFCFBEA
Copy CRC 0EFCFBEA
Accurately ripped (confidence 7) [4DB78124] (AR v2)
Copy OK

Track 22

Filename C:My DocumentsMy FLACThe Beatles - Back-Track Part Two (1989) [FLAC]22 - We Can Work It Out (Take 1).wav

Peak level 99.6 %
Extraction speed 4.0 X
Track quality 100.0 %
Test CRC 51903D8E
Copy CRC 51903D8E
Accurately ripped (confidence 6) [8FF85B70] (AR v2)
Copy OK

Track 23

Filename C:My DocumentsMy FLACThe Beatles - Back-Track Part Two (1989) [FLAC]23 - We Can Work It Out (Take 2).wav

Peak level 99.6 %
Extraction speed 3.3 X
Track quality 99.9 %
Test CRC FBEAA796
Copy CRC FBEAA796
Accurately ripped (confidence 7) [6F80027B] (AR v2)
Copy OK

Track 24

Filename C:My DocumentsMy FLACThe Beatles - Back-Track Part Two (1989) [FLAC]24 - We Can Work It Out (Take 3).wav

Peak level 99.6 %
Extraction speed 3.3 X
Track quality 99.9 %
Test CRC E1737FA1
Copy CRC E1737FA1
Accurately ripped (confidence 7) [7299938F] (AR v2)
Copy OK

Track 25

Filename C:My DocumentsMy FLACThe Beatles - Back-Track Part Two (1989) [FLAC]25 - Paperback Writer (Take 1).wav

Peak level 99.6 %
Extraction speed 2.9 X
Track quality 100.0 %
Test CRC 117F7BB4
Copy CRC 117F7BB4
Accurately ripped (confidence 7) [58DACA2B] (AR v2)
Copy OK

Track 27

Filename C:My DocumentsMy FLACThe Beatles - Back-Track Part Two (1989) [FLAC]27 - Hello, Hello (Take 1).wav

Peak level 99.6 %
Extraction speed 5.4 X
Track quality 100.0 %
Test CRC 90E397B2
Copy CRC 90E397B2
Accurately ripped (confidence 7) [4A90E75B] (AR v2)
Copy OK

Track 28

Filename C:My DocumentsMy FLACThe Beatles - Back-Track Part Two (1989) [FLAC]28 - Magical Mystery Tour (Take 8).wav

Peak level 99.6 %
Extraction speed 5.5 X
Track quality 100.0 %
Test CRC AD10B7A3
Copy CRC AD10B7A3
Accurately ripped (confidence 7) [65430A6A] (AR v2)
Copy OK

Track 29

Filename C:My DocumentsMy FLACThe Beatles - Back-Track Part Two (1989) [FLAC]29 - Jessie's Dream.wav

Peak level 99.6 %
Extraction speed 5.6 X
Track quality 100.0 %
Test CRC 8837E6E2
Copy CRC 8837E6E2
Accurately ripped (confidence 6) [BBD0B45E] (AR v2)
Copy OK

Track 30

Filename C:My DocumentsMy FLACThe Beatles - Back-Track Part Two (1989) [FLAC]30 - Blue Jay Way (Take 1).wav

Peak level 99.6 %
Extraction speed 5.6 X
Track quality 100.0 %
Test CRC 5F710FB4
Copy CRC 5F710FB4
Accurately ripped (confidence 5) [9F4B506A] (AR v2)
Copy OK

Track 31

Filename C:My DocumentsMy FLACThe Beatles - Back-Track Part Two (1989) [FLAC]31 - Hey Jude (Take 9).wav

Peak level 99.4 %
Extraction speed 5.3 X
Track quality 99.9 %
Test CRC C31142F1
Copy CRC C31142F1
Track not fully ripped for AccurateRip lookup
Copy OK

Track 32

Filename C:My DocumentsMy FLACThe Beatles - Back-Track Part Two (1989) [FLAC]32 - I Hate To See (The Evening Sun Go Down).wav

Pre-gap length 0:00:05.25

Peak level 99.3 %
Extraction speed 4.1 X
Track quality 100.0 %
Test CRC 3EDF2AF0
Copy CRC 3EDF2AF0
Accurately ripped (confidence 7) [E9A6FFD5] (AR v2)
Copy OK


30 track(s) accurately ripped
1 track(s) not fully ripped for AccurateRip lookup

Some tracks could not be verified as accurate

No errors occurred

End of status report

==== Log checksum 1C1E65ADF2E3E8C75EC6E274B4C1DD10520B320CF5925C928EE568B52D36375C ====
http://www.nitroflare.com/view/66637EF5E18D595/Th3834TL35-84cktr4cP4RT2_lgBgFL4C.rar
http://www.nitroflare.com/view/608C8FA76A038F7/Th3834TL35-84cktr4cP4RT2_lgBg.rar