James Murray - Where Edges Meet (2008)


James Murray - Where Edges Meet (2008)
EAC Rip | FLAC (image+.cue+log) - 380 MB | MP3 CBR 320 kbps (LAME 3.93) - 160 MB | Covers - 282 MB
Genre: Downtempo, Ambient | RAR 3% Rec. | Label: Ultimae Records (inre 032)

Debut album from British composer James Murray subtly evokes the rumble and clatter of London's industrial wastelands, leading us to its secret gardens and wide parks with crystalline, haunting melodies. As a gifted multi-instrumentalist James has intelligently merged the organic and synthetic realms into delicate and daring soundscapes - all vividly evocative of sense and space. Where Edges Meet is an intimate and ambiguous album, a wistful playground for broken breakbeats, jazz inflections, sideways dub and avant-garde electronica.
Tracklist:
01. Awayward
02. Colour Has Its Own Language
03. Outside Context Solution
04. Gaijin
05. Fear Of Falling
06. Where Edges Meet
07. Empty Spaces
08. Eleven
09. Invisible People

Total time: 01:07:54

Exact Audio Copy V0.99 prebeta 5 from 4. May 2009

EAC extraction logfile from 13. October 2010, 0:06

James Murray / Where Edges Meet

Used drive : Optiarc DVD RW AD-7240S Adapter: 0 ID: 2

Read mode : Secure
Utilize accurate stream : Yes
Defeat audio cache : Yes
Make use of C2 pointers : No

Read offset correction : 48
Overread into Lead-In and Lead-Out : No
Fill up missing offset samples with silence : Yes
Delete leading and trailing silent blocks : No
Null samples used in CRC calculations : Yes
Used interface : Installed external ASPI interface

Used output format : User Defined Encoder
Selected bitrate : 1024 kBit/s
Quality : High
Add ID3 tag : No
Command line compressor : C:Program FilesExact Audio CopyFLACFLAC.EXE
Additional command line options : -8 -V -T "ARTIST=%a" -T "TITLE=%t" -T "ALBUM=%g" -T "DATE=%y" -T "TRACKNUMBER=%n" -T "GENRE=%m" -T "COMMENT=%e" %s -o %d


TOC of the extracted CD

Track | Start | Length | Start sector | End sector
––––––––––––––––––––––––––––-
1 | 0:00.00 | 6:45.07 | 0 | 30381
2 | 6:45.07 | 9:03.03 | 30382 | 71109
3 | 15:48.10 | 8:19.56 | 71110 | 108590
4 | 24:07.66 | 5:29.13 | 108591 | 133278
5 | 29:37.04 | 6:18.39 | 133279 | 161667
6 | 35:55.43 | 7:18.16 | 161668 | 194533
7 | 43:13.59 | 6:08.11 | 194534 | 222144
8 | 49:21.70 | 9:42.70 | 222145 | 265864
9 | 59:04.65 | 8:49.11 | 265865 | 305550


Range status and errors

Selected range

Filename L:_EAC_RippedJames Murray - Where Edges Meet.wav

Peak level 92.2 %
Range quality 100.0 %
Test CRC 8F6A7F27
Copy CRC 8F6A7F27
Copy OK

No errors occurred


AccurateRip summary

Track 1 accurately ripped (confidence 11) [6C0E948F]
Track 2 accurately ripped (confidence 10) [1315B1AB]
Track 3 accurately ripped (confidence 9) [C15B9A98]
Track 4 accurately ripped (confidence 10) [39AD2484]
Track 5 accurately ripped (confidence 10) [9ABF1B92]
Track 6 accurately ripped (confidence 10) [CF1EDC57]
Track 7 accurately ripped (confidence 10) [10572FBB]
Track 8 accurately ripped (confidence 9) [3A92030D]
Track 9 accurately ripped (confidence 9) [27F21BE8]

All tracks accurately ripped

End of status report

[CUETools log; Date: 26.01.2016 12:41:48; Version: 2.1.4]
[CTDB TOCID: wLLlzvDf_CTlwbfPkdiPqw8lbX4-] found.
Track | CTDB Status
1 | (6/6) Accurately ripped
2 | (6/6) Accurately ripped
3 | (6/6) Accurately ripped
4 | (6/6) Accurately ripped
5 | (6/6) Accurately ripped
6 | (6/6) Accurately ripped
7 | (6/6) Accurately ripped
8 | (6/6) Accurately ripped
9 | (5/6) Accurately ripped
[AccurateRip ID: 0016c885-00a6cf57-8f0fea09] found.
Track [ CRC | V2 ] Status
01 [6c0e948f|7bc5b1e1] (12+04/16) Accurately ripped
02 [1315b1ab|4358287c] (11+04/15) Accurately ripped
03 [c15b9a98|ffd84894] (10+04/14) Accurately ripped
04 [39ad2484|416bbb56] (11+04/15) Accurately ripped
05 [9abf1b92|0569fbe9] (11+04/15) Accurately ripped
06 [cf1edc57|90e130f0] (11+04/15) Accurately ripped
07 [10572fbb|e3f1137d] (11+04/15) Accurately ripped
08 [3a92030d|f219e891] (10+04/14) Accurately ripped
09 [27f21be8|8f01839b] (10+04/14) Accurately ripped

Track Peak [ CRC32 ] [W/O NULL] [ LOG ]
– 92,2 [8F6A7F27] [BD95EDC7] CRC32
01 88,9 [03AC5A03] [FC085CCE]
02 90,0 [82330014] [D47F1274]
03 92,2 [27C77704] [D819F38B]
04 92,0 [D9012F14] [BAC3186B]
05 86,9 [D9BBAE82] [B8874E77]
06 89,5 [83631D7A] [7DCF8334]
07 88,9 [F9BC4C2F] [D7F2F74D]
08 90,5 [BE84EB5F] [11FD53FB]
09 85,6 [8AD56C75] [51680CA4]

Thanks to EPSmuz

LOSSLESS:

_______________

MP3 320 kbps:

_______________

Covers: