Mark Cook - Rebel Blues (2015)


Mark Cook - Rebel Blues (2015)
EAC Rip | FLAC (Img) + Cue + Log ~ 344 Mb | MP3 CBR320 ~ 126 Mb
Scans Included (JPG, 600 dpi) | RAR 5% Recovery
Rockin' Blues, Delta Blues, Blues Rock | © Mark Cook #888295331036

Born into a musical family, multi-talented electric blues guitarist Mark Cook grew up on the road, touring North America with his parents, who billed themselves as the Dale & Vicki Duo. Cook inherited his parents' gift and passion for music, namely the blues, and set out to become a serious musician after settling in Indiana at age 15. Since then, Cook furthered his masterful command of the guitar and also taught himself bass, piano, and production. Over time, he constructed a professional recording studio in his home, where he engineered, produced, and recorded his debut CD, An Evening With the Blues, in 2000. The album won acclaim, particularly from Just Plain Folks, a large music-industry organization, who voted it Best Blues Album of the Year 2001. Cook released his second album, The Promise Highway, in 2002.
~ Jason Birchmeier, All Music

Mark Cook (guitarist/producer) resides in Atlanta, GA. Mark is a four time winner of the "JPFolks" music awards - held each year in Los Angeles, CA. for "Best Blues Album of the Year" and "Best Rock Instrumental of the Year" - Also, received "Honorable Mention" in the "International Songwriter's Competition" - Mark is a voting member of the Recording Academy and is actively pursing music licensing and has had some recent placements in such TV shows as FOX's "Touch", NBC's "Grimm", TNT's "Saving Grace" (multiple episodes), "Without a Trace", MTV's "Camped Out" and "True Life", ABC's family channel - "Kyle XY", - ABC's "Lost" and ABC's "Eastwick" for 2 episodes. Movie placements include: "Buried Alive" 2007 and "Bad Lieutenant" starring Nicholas Cage and Val Kilmer, "Free Runner", and "I Melt With You" starring Rob Lowe.
~ markcookmusic.com
|

***************


Track List:

01. Twerk Boogie [03:45]
02. Greed Song [04:47]
03. Vicious Rumours [04:44]
04. Jilted [04:12]
05. She's My Drug [03:17]
06. Bottom of the Sea [02:13]
07. Tree Stump [01:41]
08. Cold Wind Blowing [03:44]
09. Black Train [02:46]
10. Fugitive On the Run [04:43]
11. Alimony Blues [03:29]
12. High Plains Drifter [02:01]

Exact Audio Copy V1.0 beta 3 from 29. August 2011

Отчёт EAC об извлечении, выполненном 18. декабря 2015, 13:15

Mark Cook / Rebel Blues

Дисковод: ATAPI iHAS424 A Adapter: 0 ID: 0

Режим чтения : Достоверность
Использование точного потока : Да
Отключение кэша аудио : Да
Использование указателей C2 : Нет

Коррекция смещения при чтении : 6
Способность читать области Lead-in и Lead-out : Нет
Заполнение пропущенных сэмплов тишиной : Да
Удаление блоков с тишиной в начале и конце : Нет
При вычислениях CRC использовались нулевые сэмплы : Да
Интерфейс : Установленный внешний ASPI-интерфейс

Выходной формат : Пользовательский кодировщик
Выбранный битрейт : 1024 kBit/s
Качество : Высокий
Добавление ID3-тега : Нет
Утилита сжатия : C:Program FilesExact Audio CopyFLACFLAC.EXE
Дополнительные параметры : -8 -V -T "ARTIST=%artist%" -T "ALBUM=%albumtitle%" -T "DATE=%year%" -T "GENRE=%genre%" -T "COMMENT=ripped by izia1956" %source%


TOC извлечённого CD

Трек | Старт | Длительность | Начальный сектор | Конечный сектор
––––––––––––––––––––––––––––––––––-
1 | 0:00.00 | 3:44.02 | 0 | 16801
2 | 3:44.02 | 4:46.42 | 16802 | 38293
3 | 8:30.44 | 4:43.74 | 38294 | 59592
4 | 13:14.43 | 4:11.43 | 59593 | 78460
5 | 17:26.11 | 3:16.68 | 78461 | 93228
6 | 20:43.04 | 2:12.21 | 93229 | 103149
7 | 22:55.25 | 1:40.25 | 103150 | 110674
8 | 24:35.50 | 3:43.37 | 110675 | 127436
9 | 28:19.12 | 2:45.26 | 127437 | 139837
10 | 31:04.38 | 4:42.15 | 139838 | 161002
11 | 35:46.53 | 3:28.27 | 161003 | 176629
12 | 39:15.05 | 2:00.16 | 176630 | 185645


Характеристики диапазона извлечения и сообщения об ошибках

Выбранный диапазон

Имя файла D:BitCometMark Cook2015 - Rebel BluesMark Cook - Rebel Blues.wav

Пиковый уровень 100.0 %
Скорость извлечения 3.1 X
Качество диапазона 100.0 %
CRC теста 24CCBDAB
CRC копии 24CCBDAB
Копирование… OK

Ошибок не произошло


AccurateRip: сводка

Трек 1 отсутствует в базе данных
Трек 2 отсутствует в базе данных
Трек 3 отсутствует в базе данных
Трек 4 отсутствует в базе данных
Трек 5 отсутствует в базе данных
Трек 6 отсутствует в базе данных
Трек 7 отсутствует в базе данных
Трек 8 отсутствует в базе данных
Трек 9 отсутствует в базе данных
Трек 10 отсутствует в базе данных
Трек 11 отсутствует в базе данных
Трек 12 отсутствует в базе данных

Ни одного трека нет в базе AccurateRip

Конец отчёта

==== Контрольная сумма отчёта 60AAC7572A83471DEA35729B5E66AD32D4286FA5CC120D703BBBC5FA43B5749C ====

foobar2000 1.2.6 / Dynamic Range Meter 1.1.1
log date: 2016-01-26 17:05:32

––––––––––––––––––––––––––––––––––––––––
Analyzed: Mark Cook / Rebel Blues
––––––––––––––––––––––––––––––––––––––––

DR Peak RMS Duration Track
––––––––––––––––––––––––––––––––––––––––
DR5 -0.14 dB -6.34 dB 3:44 01-Twerk Boogie
DR6 0.00 dB -6.54 dB 4:47 02-Greed Song
DR7 -0.01 dB -8.14 dB 4:44 03-Vicious Rumours
DR5 -0.07 dB -5.76 dB 4:12 04-Jilted
DR6 0.00 dB -6.67 dB 3:17 05-She's My Drug
DR5 -0.12 dB -6.85 dB 2:12 06-Bottom of the Sea
DR6 -0.55 dB -7.54 dB 1:40 07-Tree Stump
DR8 -0.42 dB -10.12 dB 3:43 08-Cold Wind Blowing
DR6 -0.05 dB -8.31 dB 2:45 09-Black Train
DR6 -0.26 dB -6.81 dB 4:42 10-Fugitive On the Run
DR4 -0.15 dB -5.48 dB 3:28 11-Alimony Blues
DR5 -0.21 dB -7.49 dB 2:00 12-High Plains Drifter
––––––––––––––––––––––––––––––––––––––––

Number of tracks: 12
Official DR value: DR6

Samplerate: 44100 Hz
Channels: 2
Bits per sample: 16
Bitrate: 1023 kbps
Codec: FLAC
================================================================================

[CUETools log; Date: 26.01.2016 17:00:05; Version: 2.1.5]
[CTDB TOCID: eVpfzSlcqf4Lo.2Hz3j_gfhMhuw-] disk not present in database.
[AccurateRip ID: 0013b206-00b3fb5c-a609ab0c] disk not present in database.

Track Peak [ CRC32 ] [W/O NULL] [ LOG ]
– 100,0 [24CCBDAB] [40F8F9FC] CRC32
01 98,4 [5F5C4203] [99D256F1]
02 100,0 [7977AA84] [952FF809]
03 99,8 [BE01D830] [77B345FA]
04 99,1 [B0FC0F9C] [52D2ACC3]
05 100,0 [9A822234] [4A960020]
06 98,5 [C3DCD5E1] [E5BE3634]
07 93,8 [E65CFE99] [EA3EED05]
08 95,2 [8467AEA1] [54AF26EE]
09 99,3 [742E5724] [5DE268F0]
10 97,0 [FA8401C2] [0CFA6E37]
11 98,3 [5F56759A] [F7D4EBAA]
12 97,6 [3F80E730] [63E1E49F]


All thanks go to izia1956



No mirrors, please!

Download: