Alexandr Mosolov - Herbert Henck (1996) {ECM 1569} [Re-Up]


Alexandr Mosolov - Herbert Henck (1996) {ECM 1569}
EAC 0.99pb4 | FLAC tracks level 8 | Cue+Log+M3U | Full Scans 300dpi | 156MB + 5% Recovery
Genre: Classical

Alexander Mosolov (1900-1973), too, uses his own distinctive scheme of tonal organisation, different from Roslavets, and different from the Vienna School as well. His sonatas are technically very complex and difficult, and symphonically oriented, exploiting the full resources of the modern instrument. Herbert Henck puts this difficult material across in a beautiful, spirited performance and finds a lot of lyricism behind an often forbidding surface. The recording and production are up to the highest possible standards, as with all of ECM's releases, which are unsurpassed.
Track List

Sonata for piano No.2 in B Minor Op.4 (1923-24) "From Old Notebooks" Dedicated to Hélène Kolobova
01. I Sonata (Andante non troppo) 9:56
02. II Adagio (Espressivo, sostenuto e severo) 7:08
03. III Finale (Allegro tumultuoso, infernale) 5:33

Deux Nocturnes Op.15 (1925/26) Dedicated to Vladimir Derzhanovsky
04. I Elegiaco, Poco Stentato 2:57
05. II Adagio 3:31

Sonata for piano No.5 in D Minor Op.12 (1925) Dedicated to Susanne Mosolova
06. I (Lento grave - Allegro affanato) 5:25
07. II Elegia (Lento) 5:45
08. III (Scherzo Marciale) (Presto, con fuoco) 2:50
09. IV Adagio Languente e Patetico (Lento) 8:40

Herbert Henck - piano

Recorded March 1995 Festeburgkirche, Frankfurt am Main

Produced by Manfred Eicher


Exact Audio Copy V0.99 prebeta 4 from 23. January 2008

EAC extraction logfile from 18. October 2009, 12:14

Alexandr Mosolov / Alexandr Mosolov (Herbert Henck)

Used drive : MATSHITADVD-RAM UJ-860S Adapter: 0 ID: 0

Read mode : Secure
Utilize accurate stream : Yes
Defeat audio cache : Yes
Make use of C2 pointers : No

Read offset correction : 102
Overread into Lead-In and Lead-Out : No
Fill up missing offset samples with silence : Yes
Delete leading and trailing silent blocks : No
Null samples used in CRC calculations : Yes
Used interface : Installed external ASPI interface
Gap handling : Appended to previous track

Used output format : User Defined Encoder
Selected bitrate : 320 kBit/s
Quality : High
Add ID3 tag : No
Command line compressor : C:Program FilesFLACflac.exe
Additional command line options : -8 -V -T "ARTIST=%a" -T"TITLE=%t" -T"ALBUM=%g" -T"DATE=%y" -T"TRACKNUMBER=%n" -T"GENRE=%m" -T"COMMENT=EAC FLAC -8" %s


TOC of the extracted CD

Track | Start | Length | Start sector | End sector
––––––––––––––––––––––––––––-
1 | 0:00.00 | 9:56.47 | 0 | 44746
2 | 9:56.47 | 7:08.70 | 44747 | 76916
3 | 17:05.42 | 5:43.08 | 76917 | 102649
4 | 22:48.50 | 2:56.72 | 102650 | 115921
5 | 25:45.47 | 3:31.03 | 115922 | 131749
6 | 29:16.50 | 5:25.60 | 131750 | 156184
7 | 34:42.35 | 5:45.15 | 156185 | 182074
8 | 40:27.50 | 2:50.00 | 182075 | 194824
9 | 43:17.50 | 8:40.22 | 194825 | 233846


Track 1

Filename G:Musak 2Classic 2MosolovAlexandr Mosolov (Herbert Henck)1 - Sonata For Piano No.2 In B Minor Op.4 (1923-24) I. Sonata (Andante non troppo).wav

Pre-gap length 0:00:02.00

Peak level 100.0 %
Track quality 100.0 %
Test CRC 60916662
Copy CRC 60916662
Track not present in AccurateRip database
Copy OK

Track 2

Filename G:Musak 2Classic 2MosolovAlexandr Mosolov (Herbert Henck)2 - Sonata For Piano No.2 In B Minor Op.4 (1923-24) II. Adagio (Espressivo, sostenuto e severo).wav

Peak level 72.1 %
Track quality 100.0 %
Test CRC CFA68CF8
Copy CRC CFA68CF8
Track not present in AccurateRip database
Copy OK

Track 3

Filename G:Musak 2Classic 2MosolovAlexandr Mosolov (Herbert Henck)3 - Sonata For Piano No.2 In B Minor Op.4 (1923-24) III. Finale (Allegro tumultuoso, infernale).wav

Peak level 95.2 %
Track quality 100.0 %
Test CRC DAF0AFAA
Copy CRC DAF0AFAA
Track not present in AccurateRip database
Copy OK

Track 4

Filename G:Musak 2Classic 2MosolovAlexandr Mosolov (Herbert Henck)4 - Deux Nocturnes Op.15 (1925,26) I. Elegiaco, Poco Stentato.wav

Pre-gap length 0:00:09.30

Peak level 94.5 %
Track quality 99.9 %
Test CRC FC5C2C56
Copy CRC FC5C2C56
Track not present in AccurateRip database
Copy OK

Track 5

Filename G:Musak 2Classic 2MosolovAlexandr Mosolov (Herbert Henck)5 - Deux Nocturnes Op.15 (1925,26) II. Adagio.wav

Peak level 85.2 %
Track quality 100.0 %
Test CRC ED0C4234
Copy CRC ED0C4234
Track not present in AccurateRip database
Copy OK

Track 6

Filename G:Musak 2Classic 2MosolovAlexandr Mosolov (Herbert Henck)6 - Sonata For Piano No.5 In D Minor Op.12 (1925) I. (Lento grave - Allegro affanato).wav

Pre-gap length 0:00:09.26

Peak level 88.1 %
Track quality 100.0 %
Test CRC 0F4815CE
Copy CRC 0F4815CE
Track not present in AccurateRip database
Copy OK

Track 7

Filename G:Musak 2Classic 2MosolovAlexandr Mosolov (Herbert Henck)7 - Sonata For Piano No.5 In D Minor Op.12 (1925) II. Elegia (Lento).wav

Peak level 47.9 %
Track quality 100.0 %
Test CRC BC2BFC69
Copy CRC BC2BFC69
Track not present in AccurateRip database
Copy OK

Track 8

Filename G:Musak 2Classic 2MosolovAlexandr Mosolov (Herbert Henck)8 - Sonata For Piano No.5 In D Minor Op.12 (1925) III. (Scherzo Marciale) (Presto, con fuoco).wav

Peak level 92.7 %
Track quality 99.9 %
Test CRC BF4B9445
Copy CRC BF4B9445
Track not present in AccurateRip database
Copy OK

Track 9

Filename G:Musak 2Classic 2MosolovAlexandr Mosolov (Herbert Henck)9 - Sonata For Piano No.5 In D Minor Op.12 (1925) IV. Adagio Languente E Patetico (Lento).wav

Peak level 82.3 %
Track quality 100.0 %
Test CRC 036F994A
Copy CRC 036F994A
Track not present in AccurateRip database
Copy OK


None of the tracks are present in the AccurateRip database

No errors occurred

End of status report


––––––––––––––––––––––––––––––––––––––––
Analyzed: Alexandr Mosolov / Alexandr Mosolov (Herbert Henck)
––––––––––––––––––––––––––––––––––––––––

DR Peak RMS Duration Track
––––––––––––––––––––––––––––––––––––––––
DR15 0.00 dB -20.40 dB 9:57 01-Sonata For Piano No.2 In B Minor Op.4 (1923-24) I. Sonata (Andante non troppo)
DR16 -2.83 dB -25.42 dB 7:09 02-Sonata For Piano No.2 In B Minor Op.4 (1923-24) II. Adagio (Espressivo, sostenuto e severo)
DR14 -0.43 dB -19.20 dB 5:43 03-Sonata For Piano No.2 In B Minor Op.4 (1923-24) III. Finale (Allegro tumultuoso, infernale)
DR17 -0.48 dB -24.95 dB 2:57 04-Deux Nocturnes Op.15 (1925/26) I. Elegiaco, Poco Stentato
DR16 -1.38 dB -23.52 dB 3:31 05-Deux Nocturnes Op.15 (1925/26) II. Adagio
DR16 -1.09 dB -22.43 dB 5:26 06-Sonata For Piano No.5 In D Minor Op.12 (1925) I. (Lento grave - Allegro affanato)
DR17 -6.38 dB -30.55 dB 5:45 07-Sonata For Piano No.5 In D Minor Op.12 (1925) II. Elegia (Lento)
DR14 -0.65 dB -20.55 dB 2:50 08-Sonata For Piano No.5 In D Minor Op.12 (1925) III. (Scherzo Marciale) (Presto, con fuoco)
DR15 -1.69 dB -21.00 dB 8:40 09-Sonata For Piano No.5 In D Minor Op.12 (1925) IV. Adagio Languente E Patetico (Lento)
––––––––––––––––––––––––––––––––––––––––

Number of tracks: 9
Official DR value: DR16

Samplerate: 44100 Hz
Channels: 2
Bits per sample: 16
Bitrate: 440 kbps
Codec: FLAC
================================================================================



Rip by desordenado