Hybrid Leisureland - Scroll Slide (2010)


Hybrid Leisureland - Scroll Slide (2010)
EAC Rip | FLAC (image+.cue+log) - 221 MB | MP3 CBR 320 kbps (LAME 3.93) - 159 MB | Covers - 91 MB
Genre: Downtempo, Ambient | RAR 3% Rec. | Label: Ultimae Records (inre 039)

Following previous tracks released on Mahiane's Oxycanta compilations, and a first album on Floor Limit, Japanese composer Hidetoshi Koizumi aka Hybrid Leisureland delivers a stunning ambient album titled 'Scroll Slide'. The artist weaves repetitive sine waveforms, fragile textures and evanescent melodies around two strong themes which are the contradiction of human existence and interpersonal communication. 'Scroll Slide' presents his reflections in the form of micro environments, delicate yet intense. Subdued rhythms, high pitched soundscapes on the verge of Larsen effects and crafted simplicity are the keys to Hybrid Leisureland's unique music.
Tracklist:
01. Division And Composition
02. Traditional Drugs
03. Gentleness Color
04. Imagination Of Imagination
05. Breeze Is Nice
06. Exist Unreality
07. Breathing Smoke
08. Threshold
09. Balance

Total time: 01:07:38

Exact Audio Copy V0.99 prebeta 5 from 4. May 2009

EAC extraction logfile from 25. September 2010, 20:19

Hybrid Leisureland / Scroll Slide

Used drive : Optiarc DVD RW AD-7240S Adapter: 0 ID: 2

Read mode : Secure
Utilize accurate stream : Yes
Defeat audio cache : Yes
Make use of C2 pointers : No

Read offset correction : 48
Overread into Lead-In and Lead-Out : No
Fill up missing offset samples with silence : Yes
Delete leading and trailing silent blocks : No
Null samples used in CRC calculations : Yes
Used interface : Installed external ASPI interface

Used output format : User Defined Encoder
Selected bitrate : 1024 kBit/s
Quality : High
Add ID3 tag : No
Command line compressor : C:Program FilesExact Audio CopyFLACFLAC.EXE
Additional command line options : -8 -V -T "ARTIST=%a" -T "TITLE=%t" -T "ALBUM=%g" -T "DATE=%y" -T "TRACKNUMBER=%n" -T "GENRE=%m" -T "COMMENT=%e" %s -o %d


TOC of the extracted CD

Track | Start | Length | Start sector | End sector
––––––––––––––––––––––––––––-
1 | 0:00.00 | 5:17.07 | 0 | 23781
2 | 5:17.07 | 6:51.23 | 23782 | 54629
3 | 12:08.30 | 6:42.11 | 54630 | 84790
4 | 18:50.41 | 5:55.70 | 84791 | 111485
5 | 24:46.36 | 6:57.40 | 111486 | 142800
6 | 31:44.01 | 7:29.56 | 142801 | 176531
7 | 39:13.57 | 5:26.26 | 176532 | 201007
8 | 44:40.08 | 8:51.28 | 201008 | 240860
9 | 53:31.36 | 14:06.17 | 240861 | 304327


Range status and errors

Selected range

Filename L:_EAC_RippedHybrid Leisureland - Scroll Slide.wav

Peak level 90.6 %
Range quality 100.0 %
Test CRC E576450A
Copy CRC E576450A
Copy OK

No errors occurred


AccurateRip summary

Track 1 accurately ripped (confidence 8) [8B4238C5]
Track 2 accurately ripped (confidence 8) [12D55B6E]
Track 3 accurately ripped (confidence 8) [82CB6C29]
Track 4 accurately ripped (confidence 8) [0E55A16A]
Track 5 accurately ripped (confidence 8) [78676C8D]
Track 6 accurately ripped (confidence 8) [F5EC611C]
Track 7 accurately ripped (confidence 8) [88E2B6BA]
Track 8 accurately ripped (confidence 8) [87317AA7]
Track 9 accurately ripped (confidence 8) [49C54D5B]

All tracks accurately ripped

End of status report

[CUETools log; Date: 29.01.2016 20:57:26; Version: 2.1.4]
[CTDB TOCID: Q0Mlt6UXmgP5_cdlYxyNVeE7IK0-] found.
Track | CTDB Status
1 | (7/7) Accurately ripped
2 | (7/7) Accurately ripped
3 | (6/7) Accurately ripped
4 | (7/7) Accurately ripped
5 | (7/7) Accurately ripped
6 | (7/7) Accurately ripped
7 | (7/7) Accurately ripped
8 | (7/7) Accurately ripped
9 | (6/7) Accurately ripped
[AccurateRip ID: 0014733b-0098e358-6f0fd909] found.
Track [ CRC | V2 ] Status
01 [8b4238c5|8dbe1c35] (10+05/15) Accurately ripped
02 [12d55b6e|0dd88214] (10+05/15) Accurately ripped
03 [82cb6c29|f04af838] (10+04/14) Accurately ripped
04 [0e55a16a|3dc42d17] (10+05/15) Accurately ripped
05 [78676c8d|5cf04ca3] (10+05/15) Accurately ripped
06 [f5ec611c|8d61a19e] (10+05/15) Accurately ripped
07 [88e2b6ba|07dde666] (10+05/15) Accurately ripped
08 [87317aa7|720e11c0] (10+05/15) Accurately ripped
09 [49c54d5b|4877bc66] (10+05/15) Accurately ripped

Track Peak [ CRC32 ] [W/O NULL] [ LOG ]
– 90,6 [E576450A] [E2462E45] CRC32
01 90,6 [C481E063] [14445467]
02 61,4 [5CFB2D43] [64DE179A]
03 75,9 [3A215E99] [CE9202B5]
04 88,6 [FD84F688] [B020A2F4]
05 65,2 [5F57A88F] [028E3293]
06 75,7 [D3DE6D91] [C2732E82]
07 67,0 [C1E9C81B] [E9014362]
08 52,9 [7E5324AD] [BC5C1289]
09 71,6 [FB241C68] [AFC047D5]

Thanks to EPSmuz

LOSSLESS:

_______________

MP3 320 kbps:

_______________

Covers: