Cell - 2 Albums (2008-2009)


Cell - 2 Albums (2008-2009)
EAC Rip | FLAC (image+.cue+log) - 771 MB | MP3 CBR 320 kbps (LAME 3.93) - 358 MB | Covers - 148 MB
Genre: PsyChill, Downtempo, Ambient | RAR 3% Rec. | Label: World Club Music, Ultimae Records

Hanging Masses (2009). Since his first release on Ultimae's Fahrenheit Project compilation in 2001, French electronic music artist Alexandre Scheffer has been making quite a name for himself under his alias Cell with many compilation features, a first album with Indica and several live digital recordings. "Hanging Masses" is an elegant and stylish album in which the various components flow together smoothly as part of carefully crafted compositions. Cell infuses his music with warm melodic bass lines, overlapping pads and gentles pulses creating a sense of perpetual motion. The album is made of 8 long tracks and features a collaboration with Vincent Villuis aka Aes Dana on 'Switch Off'. Created with a wide array of composition tools, from the old analog synthesizers to the state of the art of new technologies, "Hanging Masses" delivers rich and ample soundscapes and constitutes in the artist's heart a homage to Brian Eno, Tangerine Dream, Steve Reich.


Cell - Ketama Live (2008)
EAC Rip | FLAC (image+.cue+log) - 449 MB | MP3 CBR 320 kbps (LAME 3.93) - 187 MB | Covers - 50 MB
Genre: PsyChill, Downtempo, Ambient | RAR 3% Rec. | Label: World Club Music (ПРЗ CD22228)

Tracklist:
01. 12 Inch Gold
02. Spinning Whale
03. Audio Deepest Night
04. Blue Embers
05. Fusion
06. Misty Morning
07. Hawaii Transit
08. Erasing Pluto

Total time: 01:19:42

Exact Audio Copy V0.99 prebeta 5 from 4. May 2009

EAC extraction logfile from 5. September 2009, 23:58

Cell / Ketama Live

Used drive : Optiarc DVD RW AD-7240S Adapter: 0 ID: 1

Read mode : Secure
Utilize accurate stream : Yes
Defeat audio cache : Yes
Make use of C2 pointers : No

Read offset correction : 48
Overread into Lead-In and Lead-Out : No
Fill up missing offset samples with silence : Yes
Delete leading and trailing silent blocks : No
Null samples used in CRC calculations : Yes
Used interface : Installed external ASPI interface

Used output format : User Defined Encoder
Selected bitrate : 1024 kBit/s
Quality : High
Add ID3 tag : No
Command line compressor : C:Program FilesExact Audio CopyFLACFLAC.EXE
Additional command line options : -8 -V -T "ARTIST=%a" -T "TITLE=%t" -T "ALBUM=%g" -T "DATE=%y" -T "TRACKNUMBER=%n" -T "GENRE=%m" -T "COMMENT=%e" %s -o %d


TOC of the extracted CD

Track | Start | Length | Start sector | End sector
––––––––––––––––––––––––––––-
1 | 0:00.00 | 9:44.61 | 0 | 43860
2 | 9:44.61 | 8:09.61 | 43861 | 80596
3 | 17:54.47 | 5:25.23 | 80597 | 104994
4 | 23:19.70 | 4:48.54 | 104995 | 126648
5 | 28:08.49 | 8:54.72 | 126649 | 166770
6 | 37:03.46 | 15:43.08 | 166771 | 237503
7 | 52:46.54 | 14:41.41 | 237504 | 303619
8 | 67:28.20 | 12:13.67 | 303620 | 358661


Range status and errors

Selected range

Filename D:_EAC_RippedCell - Ketama Live.wav

Peak level 97.7 %
Range quality 100.0 %
Test CRC B56293B0
Copy CRC B56293B0
Copy OK

No errors occurred


AccurateRip summary

Track 1 accurately ripped (confidence 3) [F97D4E17]
Track 2 accurately ripped (confidence 3) [53F7801B]
Track 3 accurately ripped (confidence 3) [DD275035]
Track 4 accurately ripped (confidence 3) [CC78B89D]
Track 5 accurately ripped (confidence 3) [B6C67CF6]
Track 6 accurately ripped (confidence 3) [64B3A099]
Track 7 accurately ripped (confidence 3) [5962FB2D]
Track 8 accurately ripped (confidence 3) [91A481E7]

All tracks accurately ripped

End of status report

[CUETools log; Date: 31.01.2016 18:44:37; Version: 2.1.4]
[CTDB TOCID: lrl_lz5mlMNY2dRkiBA.FSHvZIQ-] found.
Track | CTDB Status
1 | (4/4) Accurately ripped
2 | (4/4) Accurately ripped
3 | (4/4) Accurately ripped
4 | (4/4) Accurately ripped
5 | (4/4) Accurately ripped
6 | (4/4) Accurately ripped
7 | (4/4) Accurately ripped
8 | (4/4) Accurately ripped
[AccurateRip ID: 0015b543-00940d9b-5f12ae08] found.
Track [ CRC | V2 ] Status
01 [f97d4e17|505653f9] (4+5/9) Accurately ripped
02 [53f7801b|b6b7e492] (4+5/9) Accurately ripped
03 [dd275035|cae6298f] (4+5/9) Accurately ripped
04 [cc78b89d|f30d1772] (4+5/9) Accurately ripped
05 [b6c67cf6|b1a27b97] (4+5/9) Accurately ripped
06 [64b3a099|dd348e1c] (4+5/9) Accurately ripped
07 [5962fb2d|d2e5f179] (4+5/9) Accurately ripped
08 [91a481e7|eeb6cc32] (4+5/9) Accurately ripped

Track Peak [ CRC32 ] [W/O NULL] [ LOG ]
– 97,7 [B56293B0] [49CF359A] CRC32
01 97,7 [DCEE0641] [C8A5B49E]
02 97,7 [AB1C6B9C] [F383DB97]
03 97,7 [A5EF2691] [39928A72]
04 97,7 [B4FF0577] [276A205C]
05 97,7 [7C33C445] [E0CF9242]
06 97,7 [D18C8709] [C315813F]
07 97,7 [290E4BF4] [A095904C]
08 97,7 [BE517CF1] [60C5A434]


Cell - Hanging Masses (2009)
EAC Rip | FLAC (image+.cue+log) - 322 MB | MP3 CBR 320 kbps (LAME 3.93) - 171 MB | Covers - 98 MB
Genre: PsyChill, Downtempo, Ambient | RAR 3% Rec. | Label: Ultimae Records (inre 038)

Tracklist:
01. Calling
02. Switch Off (feat. Aes Dana)
03. Second Shape part I
04. Risky Nap Under Blue Tree
05. Hanging Masses
06. Vapor
07. Second Shape part II
08. Universal Sunrise

Total time: 01:12:36

Exact Audio Copy V0.99 prebeta 5 from 4. May 2009

EAC extraction logfile from 25. September 2010, 19:36

Cell / Hanging Masses

Used drive : Optiarc DVD RW AD-7240S Adapter: 0 ID: 2

Read mode : Secure
Utilize accurate stream : Yes
Defeat audio cache : Yes
Make use of C2 pointers : No

Read offset correction : 48
Overread into Lead-In and Lead-Out : No
Fill up missing offset samples with silence : Yes
Delete leading and trailing silent blocks : No
Null samples used in CRC calculations : Yes
Used interface : Installed external ASPI interface

Used output format : User Defined Encoder
Selected bitrate : 1024 kBit/s
Quality : High
Add ID3 tag : No
Command line compressor : C:Program FilesExact Audio CopyFLACFLAC.EXE
Additional command line options : -8 -V -T "ARTIST=%a" -T "TITLE=%t" -T "ALBUM=%g" -T "DATE=%y" -T "TRACKNUMBER=%n" -T "GENRE=%m" -T "COMMENT=%e" %s -o %d


TOC of the extracted CD

Track | Start | Length | Start sector | End sector
––––––––––––––––––––––––––––-
1 | 0:00.00 | 8:52.05 | 0 | 39904
2 | 8:52.05 | 8:30.60 | 39905 | 78214
3 | 17:22.65 | 9:02.69 | 78215 | 118933
4 | 26:25.59 | 6:35.66 | 118934 | 148624
5 | 33:01.50 | 10:48.57 | 148625 | 197281
6 | 43:50.32 | 8:32.39 | 197282 | 235720
7 | 52:22.71 | 8:59.51 | 235721 | 276196
8 | 61:22.47 | 11:13.60 | 276197 | 326731


Range status and errors

Selected range

Filename L:_EAC_RippedCell - Hanging Masses.wav

Peak level 92.2 %
Range quality 100.0 %
Test CRC 5981D01E
Copy CRC 5981D01E
Copy OK

No errors occurred


AccurateRip summary

Track 1 accurately ripped (confidence 11) [F9E27B2A]
Track 2 accurately ripped (confidence 11) [0BF79F29]
Track 3 accurately ripped (confidence 11) [1FE8D2CD]
Track 4 accurately ripped (confidence 11) [CD14051A]
Track 5 accurately ripped (confidence 11) [F7347F67]
Track 6 accurately ripped (confidence 11) [4C5B5673]
Track 7 accurately ripped (confidence 11) [B435D90B]
Track 8 accurately ripped (confidence 11) [73994FF3]

All tracks accurately ripped

End of status report

[CUETools log; Date: 31.01.2016 18:44:01; Version: 2.1.4]
[CTDB TOCID: QI7o8dvvIDnzku1r1nLxrzATTsE-] found.
Track | CTDB Status
1 | (10/12) Accurately ripped
2 | (11/12) Accurately ripped
3 | (11/12) Accurately ripped
4 | (11/12) Accurately ripped
5 | (11/12) Accurately ripped
6 | (11/12) Accurately ripped
7 | (11/12) Accurately ripped
8 | (10/12) Accurately ripped
[AccurateRip ID: 0015b12b-009138a4-6f110408] found.
Track [ CRC | V2 ] Status
01 [f9e27b2a|5b67bfce] (13+09/22) Accurately ripped
02 [0bf79f29|205e657c] (13+09/22) Accurately ripped
03 [1fe8d2cd|0d99737f] (13+09/22) Accurately ripped
04 [cd14051a|a936c629] (13+09/22) Accurately ripped
05 [f7347f67|d4c67714] (13+09/22) Accurately ripped
06 [4c5b5673|0316e3c1] (13+09/22) Accurately ripped
07 [b435d90b|760b411b] (13+09/22) Accurately ripped
08 [73994ff3|40d01c90] (13+09/22) Accurately ripped

Track Peak [ CRC32 ] [W/O NULL] [ LOG ]
– 92,2 [5981D01E] [A16A35D1] CRC32
01 88,1 [2BC29C9B] [6B5E99F2]
02 92,2 [F74D0DAD] [D6E87FC3]
03 91,7 [01808441] [1ED4165B]
04 92,2 [58A47BD3] [C8B54071]
05 92,2 [A3A70C05] [0F180673]
06 90,1 [93757E04] [93403416]
07 90,6 [91007029] [2F04891F]
08 88,6 [BC4AD40D] [6D9B95D0]

Thanks to EPSmuz

Cell - Ketama Live (2008)

LOSSLESS:

_______________

MP3 320 kbps:

_______________

Covers:

______________________________________

Cell - Hanging Masses (2009)

LOSSLESS:

_______________

MP3 320 kbps:

_______________

Covers: