Mighty Sam McClain & Knut Reiersrud - Tears Of The World (2015) {ACT}


Mighty Sam McClain & Knut Reiersrud - Tears Of The World (2015) {ACT}
EAC 1.0b3 | FLAC tracks level 8 | Cue+Log+M3U | Full Scans 300dpi | 292MB + 5% Recovery
Genre: Blues

Even Norwegians get the blues. On “Tears Of The World,” guitarist Knut Reiersrud and his band find themselves in the company of the 72-year old vocalist Mighty Sam McClain, originally from Louisiana. Together, they have dedicated themselves to the music of the deep south and have given impressive proof that, when it comes to playing hard-driven R&B, soul or blues, it's not where you come from that's important.In the context of the regular flow of new releases on the ACT label, “Tears Of The World” is patently a stylistic outlier; and yet this detour is not all that surprising, given label founder Siggi Loch's passion for the blues. In Loch's autobiography he describes the experience of what he remembers as the “wildest night” of his life - until then, at least. It was in 1962, and he was at one of the first American Folk Blues Fest…
Track List
01. Tears Of The World ( Hale, Willie / Hale, Willie) 02:52
02. Please Mr. Foreman ( Carter, Joe Lee / Carter, Joe Lee) 02:41
03. Jewels ( Reiersrud, Knut / Hillestad, Erik) 04:22
04. Living In The Key Of G ( Reiersrud, Knut / Wassermann, Jeff) 03:23
05. Que Sera, Sera ( Livingston, Jay / Evans, Ray) 04:39
06. Friends ( McClain, Sam / Herlehy, Pat) 05:18
07. Too Proud ( Carter, Carlene / Carter, Carlene) 05:12
08. Apples [Don't Fall Far From The Tree] ( Reiersrud, Knut / Wassermann, Jeff) 04:39
09. I Wish I Had A Girl Like You ( Hale, Willie / Hale, Willie) 03:00
10. Somebody Help Me ( McClain, Sam / Papageorge, George) 03:38
11. Things Ain't What They Used To Be ( McClain, Sam / Papageorge, George) 03:46
12. Promised Land ( Reiersrud, Knut / Wassermann, Jeff) 05:43

musicians
Mighty Sam McClain - vocals
Knut Reiersrud - guitar, harmonica, piano (02 & 08) & vocals (05)
Bjørn Holm - guitar
David Wallumrød - Hammond organ, Wurlitzer, piano & Prophet 5
Nikolai Hængsle Eilertsen - bass
Andreas Bye - drums
HÃ¥kon Kornstad - saxes & flute
Martin Horntveth - timpani & tubular bells + strings

Produced by Knut Reiersrud and Nikolai Hængsle Eilertsen


Exact Audio Copy V1.0 beta 3 from 29. August 2011

EAC extraction logfile from 31. January 2016, 21:14

Mighty Sam McClain & Knut Reiersrud / Tears of the World

Used drive : PLEXTOR DVDR PX-L890SA Adapter: 5 ID: 1

Read mode : Secure
Utilize accurate stream : Yes
Defeat audio cache : Yes
Make use of C2 pointers : No

Read offset correction : 6
Overread into Lead-In and Lead-Out : No
Fill up missing offset samples with silence : Yes
Delete leading and trailing silent blocks : No
Null samples used in CRC calculations : Yes
Used interface : Native Win32 interface for Win NT & 2000
Gap handling : Appended to previous track

Used output format : User Defined Encoder
Selected bitrate : 128 kBit/s
Quality : High
Add ID3 tag : No
Command line compressor : C:Program Files (x86)Exact Audio CopyFLACFLAC.EXE
Additional command line options : -8 -V -T "ARTIST=%artist%" -T "TITLE=%title%" -T "ALBUM=%albumtitle%" -T "DATE=%year%" -T "TRACKNUMBER=%tracknr%" -T "TOTALTRACKS=%numtracks%" -T "GENRE=%genre%" -T "ALBUMARTIST=%albumartist%" -T "ALBUM ARTIST=%albumartist%" -T "COMMENT=EAC Secure Mode, Test & Copy, AccurateRip, FLAC -8" %source%


TOC of the extracted CD

Track | Start | Length | Start sector | End sector
––––––––––––––––––––––––––––-
1 | 0:00.00 | 2:54.33 | 0 | 13082
2 | 2:54.33 | 2:44.60 | 13083 | 25442
3 | 5:39.18 | 4:31.28 | 25443 | 45795
4 | 10:10.46 | 3:27.13 | 45796 | 61333
5 | 13:37.59 | 4:43.72 | 61334 | 82630
6 | 18:21.56 | 5:22.41 | 82631 | 106821
7 | 23:44.22 | 5:16.47 | 106822 | 130568
8 | 29:00.69 | 4:43.34 | 130569 | 151827
9 | 33:44.28 | 3:02.18 | 151828 | 165495
10 | 36:46.46 | 3:41.29 | 165496 | 182099
11 | 40:28.00 | 3:49.51 | 182100 | 199325
12 | 44:17.51 | 5:57.56 | 199326 | 226156


Track 1

Filename E:1 - Tears of the World.wav

Pre-gap length 0:00:02.00

Peak level 98.4 %
Extraction speed 3.1 X
Track quality 100.0 %
Test CRC 5B426318
Copy CRC 5B426318
Accurately ripped (confidence 5) [0013F380] (AR v2)
Copy OK

Track 2

Filename E:2 - Please Mr. Foreman.wav

Peak level 96.2 %
Extraction speed 3.5 X
Track quality 100.0 %
Test CRC DC43BAF6
Copy CRC DC43BAF6
Accurately ripped (confidence 5) [B6A45630] (AR v2)
Copy OK

Track 3

Filename E:3 - Jewels.wav

Peak level 96.5 %
Extraction speed 4.1 X
Track quality 100.0 %
Test CRC 2110D0AB
Copy CRC 2110D0AB
Accurately ripped (confidence 5) [C4A75DB9] (AR v2)
Copy OK

Track 4

Filename E:4 - Living in the Key of G.wav

Peak level 97.0 %
Extraction speed 3.3 X
Track quality 99.9 %
Test CRC F0C91B18
Copy CRC F0C91B18
Accurately ripped (confidence 5) [0D010808] (AR v2)
Copy OK

Track 5

Filename E:5 - Que Sera Sera.wav

Peak level 96.7 %
Extraction speed 4.7 X
Track quality 100.0 %
Test CRC 162DE977
Copy CRC 162DE977
Accurately ripped (confidence 5) [E0D01607] (AR v2)
Copy OK

Track 6

Filename E:6 - Friends.wav

Peak level 96.6 %
Extraction speed 5.1 X
Track quality 100.0 %
Test CRC C6CFA1F7
Copy CRC C6CFA1F7
Accurately ripped (confidence 5) [88E82029] (AR v2)
Copy OK

Track 7

Filename E:7 - Too Proud.wav

Peak level 96.1 %
Extraction speed 5.5 X
Track quality 100.0 %
Test CRC C4E16075
Copy CRC C4E16075
Accurately ripped (confidence 5) [C4A2D90D] (AR v2)
Copy OK

Track 8

Filename E:8 - Apples (Don't Fall Far from the Tree).wav

Peak level 96.3 %
Extraction speed 5.7 X
Track quality 100.0 %
Test CRC 3574521C
Copy CRC 3574521C
Accurately ripped (confidence 5) [0F007867] (AR v2)
Copy OK

Track 9

Filename E:9 - I Wish I Had a Girl Like You.wav

Peak level 96.3 %
Extraction speed 4.1 X
Track quality 99.9 %
Test CRC 3C069043
Copy CRC 3C069043
Accurately ripped (confidence 5) [6EA486F8] (AR v2)
Copy OK

Track 10

Filename E:10 - Somebody Help Me.wav

Peak level 97.7 %
Extraction speed 5.9 X
Track quality 100.0 %
Test CRC 753B1748
Copy CRC 753B1748
Accurately ripped (confidence 5) [D56122F1] (AR v2)
Copy OK

Track 11

Filename E:11 - Things Ain't What They Used To Be.wav

Peak level 96.6 %
Extraction speed 6.2 X
Track quality 100.0 %
Test CRC DF2E46AE
Copy CRC DF2E46AE
Accurately ripped (confidence 5) [54C218A5] (AR v2)
Copy OK

Track 12

Filename E:12 - Promised Land.wav

Peak level 100.0 %
Extraction speed 6.8 X
Track quality 100.0 %
Test CRC 14F30EFD
Copy CRC 14F30EFD
Accurately ripped (confidence 5) [9582ECA8] (AR v2)
Copy OK


All tracks accurately ripped

No errors occurred

End of status report

==== Log checksum 78FEBDEF86C1F5BB4C8815D5B00A89F93999BFBD9A042DD4FFA36F0280B20681 ====


––––––––––––––––––––––––––––––––––––––––
Analyzed: Mighty Sam McClain & Knut Reiersrud / Tears of the World
––––––––––––––––––––––––––––––––––––––––

DR Peak RMS Duration Track
––––––––––––––––––––––––––––––––––––––––
DR6 -0.14 dB -7.32 dB 2:54 01-Tears of the World
DR6 -0.33 dB -9.33 dB 2:45 02-Please Mr. Foreman
DR9 -0.30 dB -11.82 dB 4:31 03-Jewels
DR6 -0.26 dB -8.32 dB 3:27 04-Living in the Key of G
DR7 -0.29 dB -9.84 dB 4:44 05-Que Sera Sera
DR7 -0.30 dB -9.03 dB 5:23 06-Friends
DR7 -0.34 dB -10.20 dB 5:17 07-Too Proud
DR6 -0.33 dB -7.74 dB 4:43 08-Apples (Don't Fall Far from the Tree)
DR6 -0.32 dB -8.31 dB 3:02 09-I Wish I Had a Girl Like You
DR7 -0.20 dB -9.40 dB 3:41 10-Somebody Help Me
DR7 -0.29 dB -8.56 dB 3:50 11-Things Ain't What They Used To Be
DR6 0.00 dB -9.14 dB 5:58 12-Promised Land
––––––––––––––––––––––––––––––––––––––––

Number of tracks: 12
Official DR value: DR7

Samplerate: 44100 Hz
Channels: 2
Bits per sample: 16
Bitrate: 758 kbps
Codec: FLAC
================================================================================



Rip by jlgt