Gato Barbieri - Ruby, Ruby (1977) {A&M}


Gato Barbieri - Ruby, Ruby (1977) {A&M}
EAC 1.0b3 | FLAC tracks level 8 | Cue+Log+M3U | Full Scans 300dpi | 327MB + 5% Recovery
Genre: Latin Jazz, World Fusion, Smooth Jazz

Charming and romantic fit the description of Gato Barbieri and the work he presents here, the album Ruby, Ruby. The production of the record, mastered and engineered handsomely by Herb Alpert, is very lush and beautiful to a lasting degree. Barbieri turns his first song, "Ruby," from an early-on haunting love ballad to an appealing and gripping all-out Latin jam session. This theme happens to find itself playing roles several times over throughout the record. The musicianship explored is captivating and adventurous, taking the listener on a passionate journey to whatever part of the soul he or she wishes to find or dares to pursue.
Track List
01. Ruby (Mitchell Parish / Heinz Roemheld) 6:28
02. Nostalgia (Gato Barbieri) 5:25
03. Latin Reaction (Marvin Gaye) 4:59
04. Ngiculela-Es una Historia-I Am Singing (Stevie Wonder) 5:45
05. Sunride (Gato Barbieri) 5:49
06. Adios (Gato Barbieri) 4:44
07. Blue Angel (Gato Barbieri) 5:47
08. Midnight Tango (Herb Alpert) 4:32

musicians
Gato Barbieri - tenor sax
Lenny White - drums
Gary King - bass
Joe Caro - guitar
David Spinozza - guitar
Eddy Martinez - keyboards
Angel "Cachete" Maldonado - percussion

additional musicians:
Paulinho Da Costa - percussion on 1, 2, 4, 5, 6, 7
Lee Ritenour - guitar on 1, 2, 5
Steve Gadd - drums on 5
Herb Albert - trumpet on 2
Bernard "Pretty" Purdie - drums on 1
Joe Clayton - congas on 3
Don Groinick - organ on 3, piano on 1
Steve Jordan - drums on 6
Eddie Guagua - bass on 6
Chuck Domanico - bass on 7
Ian Underwood - synthesizer on 2, 3, 4
Portinho - percussion on 6
David Nadien - string conductor, string contractor

brass:
French Horn - John Gale, Peter Gordon, Tom "Bones" Malone
Flugelhorn, Trumpet - Jon Faddis, Alan Rubin, Lew Soloff, Marvin Stamm
Trombone - David Taylor, Paul Faulise, Wayne Andre

Produced by Herb Alpert


Exact Audio Copy V1.0 beta 3 from 29. August 2011

EAC extraction logfile from 8. February 2014, 15:54

Gato Barbieri / Ruby, Ruby

Used drive : HL-DT-STDVDRAM GSA-T50N Adapter: 1 ID: 0

Read mode : Secure
Utilize accurate stream : Yes
Defeat audio cache : Yes
Make use of C2 pointers : No

Read offset correction : 667
Overread into Lead-In and Lead-Out : No
Fill up missing offset samples with silence : Yes
Delete leading and trailing silent blocks : No
Null samples used in CRC calculations : Yes
Used interface : Native Win32 interface for Win NT & 2000
Gap handling : Appended to previous track

Used output format : User Defined Encoder
Selected bitrate : 1024 kBit/s
Quality : High
Add ID3 tag : No
Command line compressor : C:Program FilesExact Audio CopyFlacflac.exe
Additional command line options : -8 -V -T "ARTIST=%artist%" -T "TITLE=%title%" -T "ALBUM=%albumtitle%" -T "DATE=%year%" -T "TRACKNUMBER=%tracknr%" -T "GENRE=%genre%" -T "PERFORMER=%albuminterpret%" -T "COMMENT=EAC V1.0 beta 2, Secure Mode, Test & Copy, AccurateRip, FLAC -8" %source% -o %dest%


TOC of the extracted CD

Track | Start | Length | Start sector | End sector
––––––––––––––––––––––––––––-
1 | 0:00.00 | 6:28.33 | 0 | 29132
2 | 6:28.33 | 5:25.20 | 29133 | 53527
3 | 11:53.53 | 4:59.44 | 53528 | 75996
4 | 16:53.22 | 5:45.30 | 75997 | 101901
5 | 22:38.52 | 5:49.10 | 101902 | 128086
6 | 28:27.62 | 4:44.74 | 128087 | 149460
7 | 33:12.61 | 5:47.19 | 149461 | 175504
8 | 39:00.05 | 4:32.30 | 175505 | 195934


Track 1

Filename C:musicMusicgate's ripsGato Barbieri - Ruby, Ruby - 1977 (2007 Verve 0602517426696)1 - Ruby.wav

Pre-gap length 0:00:02.00

Peak level 97.7 %
Extraction speed 2.4 X
Track quality 99.9 %
Test CRC DA00C789
Copy CRC DA00C789
Accurately ripped (confidence 6) [225D30E9] (AR v2)
Copy OK

Track 2

Filename C:musicMusicgate's ripsGato Barbieri - Ruby, Ruby - 1977 (2007 Verve 0602517426696)2 - Nostalgia.wav

Peak level 97.7 %
Extraction speed 3.0 X
Track quality 100.0 %
Test CRC E314869A
Copy CRC E314869A
Accurately ripped (confidence 6) [545F7B57] (AR v2)
Copy OK

Track 3

Filename C:musicMusicgate's ripsGato Barbieri - Ruby, Ruby - 1977 (2007 Verve 0602517426696)3 - Latin Reaction.wav

Peak level 97.7 %
Extraction speed 3.2 X
Track quality 100.0 %
Test CRC 34D0CF97
Copy CRC 34D0CF97
Accurately ripped (confidence 6) [E94FA87F] (AR v2)
Copy OK

Track 4

Filename C:musicMusicgate's ripsGato Barbieri - Ruby, Ruby - 1977 (2007 Verve 0602517426696)4 - Ngiculela-Es Una Historia-I Am Singing.wav

Peak level 97.7 %
Extraction speed 3.6 X
Track quality 100.0 %
Test CRC 902B1928
Copy CRC 902B1928
Accurately ripped (confidence 6) [B0DA470E] (AR v2)
Copy OK

Track 5

Filename C:musicMusicgate's ripsGato Barbieri - Ruby, Ruby - 1977 (2007 Verve 0602517426696)5 - Sunride.wav

Peak level 97.7 %
Extraction speed 3.8 X
Track quality 100.0 %
Test CRC 9C4E4F69
Copy CRC 9C4E4F69
Accurately ripped (confidence 6) [A391022A] (AR v2)
Copy OK

Track 6

Filename C:musicMusicgate's ripsGato Barbieri - Ruby, Ruby - 1977 (2007 Verve 0602517426696)6 - Adios.wav

Peak level 97.7 %
Extraction speed 4.0 X
Track quality 100.0 %
Test CRC 673CF69E
Copy CRC 673CF69E
Accurately ripped (confidence 5) [3F41CB92] (AR v2)
Copy OK

Track 7

Filename C:musicMusicgate's ripsGato Barbieri - Ruby, Ruby - 1977 (2007 Verve 0602517426696)7 - Blue Angel.wav

Peak level 97.7 %
Extraction speed 3.9 X
Track quality 99.9 %
Test CRC 548A3F6F
Copy CRC 548A3F6F
Accurately ripped (confidence 5) [DAB1D869] (AR v2)
Copy OK

Track 8

Filename C:musicMusicgate's ripsGato Barbieri - Ruby, Ruby - 1977 (2007 Verve 0602517426696)8 - Midnight Tango.wav

Peak level 97.7 %
Extraction speed 4.4 X
Track quality 100.0 %
Test CRC 3FC8489E
Copy CRC 3FC8489E
Accurately ripped (confidence 6) [30442873] (AR v2)
Copy OK


All tracks accurately ripped

No errors occurred

End of status report

==== Log checksum C9729E306B542DFFFAF192E73CAC1A0FB92DFE5F3E1792A279B30EEE7F6AAA71 ====


––––––––––––––––––––––––––––––––––––––––
Analyzed: Gato Barbieri / Ruby, Ruby
––––––––––––––––––––––––––––––––––––––––

DR Peak RMS Duration Track
––––––––––––––––––––––––––––––––––––––––
DR11 -0.20 dB -14.48 dB 6:28 01-Ruby
DR10 -0.20 dB -12.58 dB 5:25 02-Nostalgia
DR10 -0.20 dB -13.19 dB 5:00 03-Latin Reaction
DR10 -0.20 dB -11.98 dB 5:45 04-Ngiculela-Es Una Historia-I Am Singing
DR11 -0.20 dB -14.97 dB 5:49 05-Sunride
DR9 -0.20 dB -11.63 dB 4:45 06-Adios
DR8 -0.20 dB -11.42 dB 5:47 07-Blue Angel
DR9 -0.20 dB -12.44 dB 4:32 08-Midnight Tango
––––––––––––––––––––––––––––––––––––––––

Number of tracks: 8
Official DR value: DR10

Samplerate: 44100 Hz
Channels: 2
Bits per sample: 16
Bitrate: 938 kbps
Codec: FLAC
================================================================================



Rip by Musicgate