With The Dead - With The Dead (2015) (Japan, QATE-10082)


With The Dead - With The Dead (2015)
EAC Rip | FLAC, IMG+CUE+LOG | 380 MB | MP3 CBR 320 Kbps | 130 MB | Complete HQ Scans | PNG -> 70 MB
Occult Doom | Label: Trooper Entertainment Inc., Japan #QATE-10082 | RAR 3% Rec. | Nitroflare.com
… Japanese edition with bonus track …

WITH THE DEAD, the new U.K.-based band featuring members of CATHEDRAL and ELECTRIC WIZARD, will release its six-track, self-titled debut on October 16 via Rise Above Records. WITH THE DEAD was formed by the founding rhythm section of occultist doom overloads ELECTRIC WIZARD: guitarist/bassist Tim Bagshaw and drummer Mark Greening, a pair once notorious for the sheer brute heaviness of their bowel-shaking sound and early extra-curricular activities that involved excess, injury and low-level criminality (arrests for the theft of a crucifix from a church roof and drunkenly robbing an off-licence to name but two). Both have also played together in RAMESSES. Completing the triangle is frontman Lee Dorrian, co-founder of doom pioneers CATHEDRAL, former frontman with grindcore legends NAPALM DEATH and owner of Rise Above Records, the U.K.'s finest independent purveyors of all sounds heavy and underground, whose stable of bands include GHOST, UNCLE ACID & THE DEADBEATS, LUCIFER, BLOOD CEREMONY and WITCHCRAFT. Having been in business since 1988, Rise Above is also one of the most enduring. Existing doom-heads will already know that the longstanding relationship between Rise Above and ELECTRIC WIZARD is one that was fractious and fraught. Much mud has been slung between band, label and former members in recent years, but the WITH THE DEAD trio are of the opinion that big words meant little — it's the action that truly counts. And as the fire that is ELECTRIC WIZARD peters out, WITH THE DEAD burn with eyebrow-singeing intensity. WITH THE DEAD are heavy. No — scratch that. WITH THE DEAD are heavy.H.E.A.V.Y!!! They are a band with teeth and talons.

Like the product of some sort of alchemical alignment or a diabolical modern demon summoned by a whispered incantatory spell, WITH THE DEAD formed on All Hallow's Eve 2014. They worked quickly and the result is a six-track, self-titled debut broadside that draws on the members' rich musical legacy but without ever taking a backward step. Rising like a fecund creature from the fetid bogs of old England, WITH THE DEAD is a malevolent beast that lurches and staggers, flattening everything in its path. Guitars moil and curdle, bubbling up through the loam like black tar, while existing fans will surely welcome the return of Dorrian's distinctly hateful vocals. The album was recorded at Orgone Studios in High Barnet, London with producer/engineer Jaime Gomez Arellano in late March/early April 2015. "With The Dead"'s vocals were then added in two very short evening sessions in April and May 2015.

~
Tracklist :

1. Crown Of Burning Stars - 6:21
2. The Cross - 6:46
3. Nephthys - 6:39
4. Living With The Dead - 7:50
5. I Am Your Virus - 5:40
6. Screams From My Own Grave - 8:51
7. Celestial Sucide (Japanese Bonus Track) - 5:07

Exact Audio Copy V1.1 from 23. June 2015

EAC extraction logfile from 2. February 2016, 19:47

With The Dead / With The Dead (Japan, QATE-10082)

Used drive : PIONEER DVD-RW DVR-219L Adapter: 1 ID: 1

Read mode : Secure
Utilize accurate stream : Yes
Defeat audio cache : Yes
Make use of C2 pointers : No

Read offset correction : 6
Overread into Lead-In and Lead-Out : No
Fill up missing offset samples with silence : Yes
Delete leading and trailing silent blocks : No
Null samples used in CRC calculations : Yes
Used interface : Native Win32 interface for Win NT & 2000

Used output format : Internal WAV Routines
Sample format : 44.100 Hz; 16 Bit; Stereo


TOC of the extracted CD

Track | Start | Length | Start sector | End sector
––––––––––––––––––––––––––––-
1 | 0:00.00 | 6:20.46 | 0 | 28545
2 | 6:20.46 | 6:45.57 | 28546 | 58977
3 | 13:06.28 | 6:39.04 | 58978 | 88906
4 | 19:45.32 | 7:49.69 | 88907 | 124150
5 | 27:35.26 | 5:39.63 | 124151 | 149638
6 | 33:15.14 | 8:50.42 | 149639 | 189430
7 | 42:05.56 | 5:07.09 | 189431 | 212464


Range status and errors

Selected range

Filename D:.by necromandus for avaxhomeWith The Dead - With The Dead (Japan, QATE-10082).wav

Peak level 100.0 %
Extraction speed 6.7 X
Range quality 100.0 %
Test CRC 1F49E8D1
Copy CRC 1F49E8D1
Copy OK

No errors occurred


AccurateRip summary

Track 1 not present in database
Track 2 not present in database
Track 3 not present in database
Track 4 not present in database
Track 5 not present in database
Track 6 not present in database
Track 7 not present in database

None of the tracks are present in the AccurateRip database

End of status report

–– CUETools DB Plugin V2.1.6

[CTDB TOCID: 4lNPNT.Oj_oExoTUNGtFUujoX40-] found
Submit result: 4lNPNT.Oj_oExoTUNGtFUujoX40- has been confirmed
Track | CTDB Status
1 | (3/3) Accurately ripped
2 | (3/3) Accurately ripped
3 | (3/3) Accurately ripped
4 | (3/3) Accurately ripped
5 | (3/3) Accurately ripped
6 | (3/3) Accurately ripped
7 | (3/3) Accurately ripped


==== Log checksum 78402898C701544775CB7AC40D28C02CF6C2B39D5E935A662CE743E139458560 ====

• Lee Dorrian - Vocals
• Tim Bagshaw - Guitar, Bass
• Mark Greening - Drums, Hammond

All lyrics by Lee Dorrian, all music by Tim Bagshaw
Produced and engineered by Jaime Gomez Arellano at Orgone Studios, UK
Lossless (FLAC)*
http://www.nitroflare.com/view/F2CA5CBFDF0CDBD/WTD2015WTDJAPLOS.rar

All Covers (PNG)
http://www.nitroflare.com/view/AE4DC77796A3E16/WTD2015WTDJAPPNG.rar

Lossy HQ (320 Kbps CBR)
http://www.nitroflare.com/view/2D25447D0861AEB/WTD2015WTDJAPMP3.rar

* Original CD -> EAC image, embedded cuesheet & more, foobar2000 ready, etc.
(all CUEs, LOGs and other technical info includes in the internal "CD_Support" archive).